Swamp.Shark.2011.m720p.Bluray.x264-Jewelraz



IMDB :
http://www.imdb.com/title/tt1684927



Synopsis:
Openon gorgeous swamplands of the Atchafalaya Basin in the summer. Lots ofbeautiful teens are at the beach the weekend before Gator Fest. Thatnight an animal smuggling deal goes wrong and a large sea creatureescapes into a swampy backwoods river. At the McDaniels Gator Shackrestaurant, a local, Jackson is drunk, and gets mangled to bits. Thetown sheriff blames the carnage on the McDaniels escaped pack ofgators and tries hauling them off to jail. Rachel McDaniel, head of thefamily, claims to have seen the fin of a shark! Rachel and her family,along with the help of a mysterious stranger, Charlie, take on theSwampshark and the law to clear their names, save Rachels kid sisterKrystal and prevent the unwitting folks at the upcoming Gator Fest frombeing torn to shreds by a beast the likes of which no one has ever seen!
Wupload :
http://www.wupload.com/file/12927632....mkv.part1.rar
http://www.wupload.com/file/12927632....mkv.part2.rar
http://www.wupload.com/file/12927637....mkv.part3.rar
http://www.wupload.com/file/12927632....mkv.part4.rar
http://www.wupload.com/file/12927637....mkv.part5.rar

Fileserve :
http://www.fileserve.com/file/vYPza8....mkv.part1.rar
http://www.fileserve.com/file/9qXzgW....mkv.part2.rar
http://www.fileserve.com/file/EJMTHp....mkv.part3.rar
http://www.fileserve.com/file/ehuu2b....mkv.part4.rar
http://www.fileserve.com/file/WcMF5u....mkv.part5.rar

Filejungle :
http://www.filejungle.com/f/3fxxfw/S....mkv.part1.rar
http://www.filejungle.com/f/MEQKvR/S....mkv.part2.rar
http://www.filejungle.com/f/UqfWwe/S....mkv.part3.rar
http://www.filejungle.com/f/7GudYj/S....mkv.part4.rar
http://www.filejungle.com/f/PjWbFr/S....mkv.part5.rar

Filesonic :
http://www.filesonic.com/file/276203....mkv.part1.rar
http://www.filesonic.com/file/276203....mkv.part2.rar
http://www.filesonic.com/file/276236....mkv.part3.rar
http://www.filesonic.com/file/276236....mkv.part4.rar
http://www.filesonic.com/file/276236....mkv.part5.rar

PLEASE REPLY IF YOU LIKE MY POST!

SCREENSHOT :


NFO :
General
Unique ID : 207126094253715225792977873197033680173 (0x9BD308E353784E59A6EDF1F5DB916D2D)Swamp.Shark.2011.m720p.Bluray.x264-Jewelraz.mkv
Format : Matroska
File size : 3.16 GiB
Duration : 1h 28mn
Overall bit rate : 5 087 Kbps
Encoded date : UTC 2011-10-23 04:32:47
Writing application : mkvmerge v5.0.0 ('Die Wahre Liebe') built on Sep 25 2011 20:33:49
Writing library : libebml v1.2.2 + libmatroska v1.3.0

Video
ID : 1
Format : AVC
Format/Info : Advanced Video Codec
Format profile : [email protected]
Format settings, CABAC : Yes
Format settings, ReFrames : 9 frames
Format settings, GOP : M=7, N=24
Muxing mode : Header stripping
Codec ID : V_MPEG4/ISO/AVC
Duration : 1h 28mn
Bit rate : 3 168 Kbps
Width : 1 280 pixels
Height : 720 pixels
Display aspect ratio : 16:9
Frame rate : 23.976 fps
Color space : YUV
Chroma subsampling : 4:2:0
Bit depth : 8 bits
Scan type : Progressive
Bits/(Pixel*Frame) : 0.143
Stream size : 1.92 GiB (61%)
Title : [email protected]
Writing library : x264 core 116 r2074 2641b9e
Encoding settings : cabac=1 / ref=9 / deblock=1:-5:-5 / analyse=0x3:0x133 / me=umh / subme=9 / psy=1 / psy_rd=1.00:0.15 / mixed_ref=1 / me_range=32 / chroma_me=1 / trellis=1 / 8x8dct=1 / cqm=0 / deadzone=21,11 / fast_pskip=1 / chroma_qp_offset=-7 / threads=12 / sliced_threads=0 / slices=4 / nr=0 / decimate=1 / interlaced=0 / bluray_compat=0 / constrained_intra=0 / bframes=6 / b_pyramid=2 / b_adapt=1 / b_bias=0 / direct=1 / weightb=1 / open_gop=0 / weightp=2 / keyint=24 / keyint_min=2 / scenecut=40 / intra_refresh=0 / rc_lookahead=24 / rc=2pass / mbtree=1 / bitrate=3168 / ratetol=1.0 / qcomp=0.60 / qpmin=0 / qpmax=69 / qpstep=4 / cplxblur=20.0 / qblur=0.5 / ip_ratio=1.40 / aq=1:1.00

Audio #1
ID : 2
Format : AC-3
Format/Info : Audio Coding 3
Mode extension : CM (complete main)
Muxing mode : Header stripping
Codec ID : A_AC3
Duration : 1h 28mn
Bit rate mode : Constant
Bit rate : 384 Kbps
Channel(s) : 6 channels
Channel positions : Front: L C R, Side: L R, LFE
Sampling rate : 48.0 KHz
Bit depth : 16 bits
Compression mode : Lossy
Stream size : 244 MiB (8%)
Title : [email protected]

Audio #2
ID : 5
Format : DTS
Format/Info : Digital Theater Systems
Muxing mode : Header stripping
Codec ID : A_DTS
Duration : 1h 28mn
Bit rate mode : Constant
Bit rate : 754 Kbps
Channel(s) : 6 channels
Channel positions : Front: L C R, Side: L R, LFE
Sampling rate : 48.0 KHz
Bit depth : 16 bits
Compression mode : Lossy
Stream size : 480 MiB (15%)

Audio #3
ID : 6
Format : DTS
Format/Info : Digital Theater Systems
Muxing mode : Header stripping
Codec ID : A_DTS
Duration : 1h 28mn
Bit rate mode : Constant
Bit rate : 754 Kbps
Channel(s) : 6 channels
Channel positions : Front: L C R, Side: L R, LFE
Sampling rate : 48.0 KHz
Bit depth : 16 bits
Compression mode : Lossy
Stream size : 480 MiB (15%)

Text #1
ID : 3
Format : UTF-8
Codec ID : S_TEXT/UTF8
Codec ID/Info : UTF-8 Plain Text
Title : [email protected]

Text #2
ID : 4
Format : VobSub
Muxing mode : zlib
Codec ID : S_VOBSUB
Codec ID/Info : The same subtitle format used on DVDs
Language : German