Mere.Brother.Ki.Dulhan.m720p.Bluray.x264-Jewelraz



IMDB :
http://www.imdb.com/title/tt1740710/



Synopsis:
Plot: London-basedLuv Agnihotri decides to end his bachelorhood and asks his Bollywoodfilm-maker brother, Kush, to find a bride for him – much to thedispleasure of his Dehradun-based father. Kush accordingly meets andinterviews a variety of women, and finally selects Delhi-based DimpleDixit, a woman he had known before, to be the perfect match. Dimple andLuv meet on-line, are attracted to each other, and the former travels toIndia where the two families get the couple formally engaged. It isthen Dimple decides that she prefers Kush. Watch as things spiral out ofcontrol when she insists that Kush must elope with her.
Wupload :
http://www.wupload.com/file/12927578....mkv.part1.rar
http://www.wupload.com/file/12927582....mkv.part2.rar
http://www.wupload.com/file/12927615....mkv.part3.rar
http://www.wupload.com/file/12927617....mkv.part4.rar
http://www.wupload.com/file/12927619....mkv.part5.rar

Fileserve :
http://www.fileserve.com/file/Bv7WUq....mkv.part1.rar
http://www.fileserve.com/file/Am3Mmg....mkv.part2.rar
http://www.fileserve.com/file/JDjet8....mkv.part3.rar
http://www.fileserve.com/file/vYS7gh....mkv.part4.rar
http://www.fileserve.com/file/hfBW7n....mkv.part5.rar

Filejungle :
http://www.filejungle.com/f/NNMQqa/M....mkv.part1.rar
http://www.filejungle.com/f/xPsdBD/M....mkv.part2.rar
http://www.filejungle.com/f/efYvDP/M....mkv.part3.rar
http://www.filejungle.com/f/PJCh73/M....mkv.part4.rar
http://www.filejungle.com/f/v3skWm/M....mkv.part5.rar

Filesonic :
http://www.filesonic.com/file/276650....mkv.part1.rar
http://www.filesonic.com/file/276651....mkv.part2.rar
http://www.filesonic.com/file/276651....mkv.part3.rar
http://www.filesonic.com/file/276651....mkv.part4.rar
http://www.filesonic.com/file/276651....mkv.part5.rar

PLEASE REPLY IF YOU LIKE MY POST!

SCREENSHOT :


NFO :
General
Unique ID : 183744156257100639739009716397830188444 (0x8A3BD656F1DBBD72AB93BCBCDC362D9C)
Complete name : Mere.Brother.Ki.Dulhan.m720p.Bluray.x264-Jewelraz.mkv
Format : Matroska
Format version : Version 2
File size : 2.91 GiB
Duration : 2h 19mn
Overall bit rate : 2 990 Kbps
Movie name : Please visit Happy-HDmovies.com to download more HD movies.
Encoded date : UTC 2011-10-24 19:10:55
Writing application : mkvmerge v5.0.0 ('Die Wahre Liebe') built on Sep 25 2011 20:33:49
Writing library : libebml v1.2.2 + libmatroska v1.3.0

Video
ID : 1
Format : AVC
Format/Info : Advanced Video Codec
Format profile : [email protected]
Format settings, CABAC : Yes
Format settings, ReFrames : 12 frames
Muxing mode : Header stripping
Codec ID : V_MPEG4/ISO/AVC
Duration : 2h 19mn
Bit rate : 2 604 Kbps
Width : 1 280 pixels
Height : 544 pixels
Display aspect ratio : 2.35:1
Frame rate : 24.000 fps
Color space : YUV
Chroma subsampling : 4:2:0
Bit depth : 8 bits
Scan type : Progressive
Bits/(Pixel*Frame) : 0.156
Stream size : 2.48 GiB (85%)
Title : [email protected]
Writing library : x264 core 116 r2074 2641b9e
Encoding settings : cabac=1 / ref=12 / deblock=1:-5:-5 / analyse=0x3:0x133 / me=umh / subme=9 / psy=1 / psy_rd=1.00:0.15 / mixed_ref=1 / me_range=32 / chroma_me=1 / trellis=1 / 8x8dct=1 / cqm=0 / deadzone=21,11 / fast_pskip=1 / chroma_qp_offset=-7 / threads=12 / sliced_threads=0 / slices=4 / nr=0 / decimate=1 / interlaced=0 / bluray_compat=0 / constrained_intra=0 / bframes=6 / b_pyramid=2 / b_adapt=1 / b_bias=0 / direct=1 / weightb=1 / open_gop=0 / weightp=2 / keyint=24 / keyint_min=2 / scenecut=40 / intra_refresh=0 / rc_lookahead=24 / rc=2pass / mbtree=1 / bitrate=2604 / ratetol=1.0 / qcomp=0.60 / qpmin=0 / qpmax=69 / qpstep=4 / cplxblur=20.0 / qblur=0.5 / ip_ratio=1.40 / aq=1:1.00

Audio
ID : 2
Format : AC-3
Format/Info : Audio Coding 3
Mode extension : CM (complete main)
Muxing mode : Header stripping
Codec ID : A_AC3
Duration : 2h 19mn
Bit rate mode : Constant
Bit rate : 384 Kbps
Channel(s) : 6 channels
Channel positions : Front: L C R, Side: L R, LFE
Sampling rate : 48.0 KHz
Bit depth : 16 bits
Compression mode : Lossy
Stream size : 383 MiB (13%)
Title : [email protected]

Text
ID : 3
Format : UTF-8
Codec ID : S_TEXT/UTF8
Codec ID/Info : UTF-8 Plain Text
Title : [email protected]