The.Nutcracker.in.3D.LIMITED.720p.BluRay.x264-REFiNED



IMDB :
http://www.imdb.com/title/tt1041804/



Synopsis:
Set in 1920′s Vienna, this a tale of a little girl, whose godfather gives her a special doll one Christmas Eve.
Sample & Subs :
http://www.wupload.com/file/12752748...ample-subs.rar
http://www.filesonic.com/file/275486...ample-subs.rar
http://www.filejungle.com/f/sbvra4/r...ample-subs.rar
http://www.fileserve.com/file/X9vrY6...ample-subs.rar

Wupload :
http://www.wupload.com/file/12752870....mkv.part1.rar
http://www.wupload.com/file/12752822....mkv.part2.rar
http://www.wupload.com/file/12767048....mkv.part3.rar
http://www.wupload.com/file/12766600....mkv.part4.rar
http://www.wupload.com/file/12752819....mkv.part5.rar

Fileserve :
http://www.fileserve.com/file/WFNe7k....mkv.part1.rar
http://www.fileserve.com/file/MBsnNs....mkv.part2.rar
http://www.fileserve.com/file/zBjGvu....mkv.part3.rar
http://www.fileserve.com/file/R2xz4Y....mkv.part4.rar
http://www.fileserve.com/file/WXJ5xy....mkv.part5.rar

Filejungle :
http://www.filejungle.com/f/hAR4pK/r....mkv.part1.rar
http://www.filejungle.com/f/DG8A9a/r....mkv.part2.rar
http://www.filejungle.com/f/6FXqvW/r....mkv.part3.rar
http://www.filejungle.com/f/JQU37w/r....mkv.part4.rar
http://www.filejungle.com/f/YhwQtg/r....mkv.part5.rar

Filesonic :
http://www.filesonic.com/file/275494....mkv.part1.rar
http://www.filesonic.com/file/275497....mkv.part2.rar
http://www.filesonic.com/file/275500....mkv.part3.rar
http://www.filesonic.com/file/275499....mkv.part4.rar
http://www.filesonic.com/file/275505....mkv.part5.rar

PLEASE REPLY IF YOU LIKE MY POST!

SCREENSHOT :


NFO :
General
Unique ID : 221699046113971341083160001809041197728 (0xA6C9AEE34400BE609562AF0692DE0AA0)
Complete name : refined-nutcracker-720p.mkv
Format : Matroska
Format version : Version 2
File size : 4.36 GiB
Duration : 1h 48mn
Overall bit rate : 5 780 Kbps
Encoded date : UTC 2011-10-27 06:17:47
Writing application : mkvmerge v4.9.1 ('Ich will') built on Jul 11 2011 23:53:15
Writing library : libebml v1.2.1 + libmatroska v1.1.1

Video
ID : 1
Format : AVC
Format/Info : Advanced Video Codec
Format profile : [email protected]
Format settings, CABAC : Yes
Format settings, ReFrames : 5 frames
Codec ID : V_MPEG4/ISO/AVC
Duration : 1h 48mn
Bit rate : 4 271 Kbps
Width : 1 280 pixels
Height : 544 pixels
Display aspect ratio : 2.35:1
Frame rate : 23.976 fps
Color space : YUV
Chroma subsampling : 4:2:0
Bit depth : 8 bits
Scan type : Progressive
Bits/(Pixel*Frame) : 0.256
Stream size : 3.13 GiB (72%)
Writing library : x264 core 116 r2074 2641b9e
Encoding settings : cabac=1 / ref=5 / deblock=1:0:0 / analyse=0x3:0x133 / me=umh / subme=7 / psy=1 / psy_rd=1.00:0.00 / mixed_ref=1 / me_range=16 / chroma_me=1 / trellis=1 / 8x8dct=1 / cqm=0 / deadzone=21,11 / fast_pskip=0 / chroma_qp_offset=-2 / threads=9 / sliced_threads=0 / nr=0 / decimate=1 / interlaced=0 / bluray_compat=0 / constrained_intra=0 / bframes=3 / b_pyramid=2 / b_adapt=1 / b_bias=0 / direct=1 / weightb=1 / open_gop=0 / weightp=2 / keyint=250 / keyint_min=23 / scenecut=40 / intra_refresh=0 / rc_lookahead=40 / rc=2pass / mbtree=1 / bitrate=4271 / ratetol=1.0 / qcomp=0.60 / qpmin=0 / qpmax=69 / qpstep=4 / cplxblur=20.0 / qblur=0.5 / ip_ratio=1.40 / aq=1:1.00
Language : English

Audio
ID : 2
Format : DTS
Format/Info : Digital Theater Systems
Codec ID : A_DTS
Duration : 1h 48mn
Bit rate mode : Constant
Bit rate : 1 510 Kbps
Channel(s) : 6 channels
Channel positions : Front: L C R, Side: L R, LFE
Sampling rate : 48.0 KHz
Bit depth : 24 bits
Compression mode : Lossy
Stream size : 1.14 GiB (26%)
Language : English

Text
ID : 3
Format : UTF-8
Codec ID : S_TEXT/UTF8
Codec ID/Info : UTF-8 Plain Text
Language : English