Harry.Potter.And.The.Deathly.Hallows.Part.2.2011.BRRip.x264-BBnRG



IMDB :
http://www.imdb.com/title/tt1201607/



Synopsis:
The final chapter begins as Harry, Ron, and Hermione continue their quest of finding and destroying the Dark Lord’s three remaining Horcruxes, the magical items responsible for his immortality. But as the mystical Deathly Hallows are uncovered, and Voldemort finds out about their mission, the biggest battle begins and life as they know it will never be the same again.
Wupload :
http://www.wupload.com/file/12351320...-BBnRG.mp4.rar

Fileserve :
http://www.fileserve.com/file/aBcsB2...-BBnRG.mp4.rar

Filejungle :
http://www.filejungle.com/f/PEFA2m/t...-BBnRG.mp4.rar

Filesonic :
http://www.filesonic.com/file/274982...-BBnRG.mp4.rar

PLEASE REPLY IF YOU LIKE MY POST!

SCREENSHOT :


NFO :
General
Complete name : Harry.Potter.And.The.Deathly.Hallows.Part.2.2011.BRRip.x264-BBnRG.mp4
Format : MPEG-4
Format profile : Base Media / Version 2
Codec ID : mp42
File size : 642 MiB
Duration : 2h 10mn
Overall bit rate mode : Variable
Overall bit rate : 688 Kbps
Encoded date : UTC 2011-10-26 11:35:07
Tagged date : UTC 2011-10-26 14:39:39
Writing application : HandBrake 0.9.5 2011010300

Video
ID : 1
Format : AVC
Format/Info : Advanced Video Codec
Format profile : [email protected]
Format settings, CABAC : Yes
Format settings, ReFrames : 4 frames
Codec ID : avc1
Codec ID/Info : Advanced Video Coding
Duration : 2h 10mn
Bit rate mode : Variable
Bit rate : 506 Kbps
Width : 720 pixels
Height : 304 pixels
Display aspect ratio : 2.35:1
Frame rate mode : Variable
Frame rate : 23.976 fps
Minimum frame rate : 23.810 fps
Maximum frame rate : 24.390 fps
Color space : YUV
Chroma subsampling : 4:2:0
Bit depth : 8 bits
Scan type : Progressive
Bits/(Pixel*Frame) : 0.096
Stream size : 488 MiB (76%)
Writing library : x264 core 112
Encoding settings : cabac=1 / ref=3 / deblock=1:0:0 / analyse=0x3:0x113 / me=hex / subme=7 / psy=1 / psy_rd=1.00:0.00 / mixed_ref=1 / me_range=16 / chroma_me=1 / trellis=1 / 8x8dct=1 / cqm=0 / deadzone=21,11 / fast_pskip=1 / chroma_qp_offset=-2 / threads=1 / sliced_threads=0 / nr=0 / decimate=1 / interlaced=0 / constrained_intra=0 / bframes=3 / b_pyramid=2 / b_adapt=1 / b_bias=0 / direct=1 / weightb=1 / open_gop=0 / weightp=2 / keyint=240 / keyint_min=24 / scenecut=40 / intra_refresh=0 / rc_lookahead=40 / rc=abr / mbtree=1 / bitrate=506 / ratetol=1.0 / qcomp=0.60 / qpmin=3 / qpmax=51 / qpstep=4 / ip_ratio=1.40 / aq=1:1.00
Encoded date : UTC 2011-10-26 11:35:07
Tagged date : UTC 2011-10-26 14:39:39
Color primaries : BT.601-6 525, BT.1358 525, BT.1700 NTSC, SMPTE 170M
Transfer characteristics : BT.709-5, BT.1361
Matrix coefficients : BT.601-6 525, BT.1358 525, BT.1700 NTSC, SMPTE 170M

Audio
ID : 2
Format : AAC
Format/Info : Advanced Audio Codec
Format profile : LC
Codec ID : 40
Duration : 2h 10mn
Bit rate mode : Variable
Bit rate : 160 Kbps
Maximum bit rate : 284 Kbps
Channel(s) : 2 channels
Channel positions : Front: L R
Sampling rate : 48.0 KHz
Compression mode : Lossy
Stream size : 149 MiB (23%)
Encoded date : UTC 2011-10-26 11:35:07
Tagged date : UTC 2011-10-26 14:39:38