Holy.Rollers.2010.m720p.BluRay.x264-Jewelraz



IMDB :
http://www.imdb.com/title/tt1143896/



Synopsis:
Plot: “Holy Rollers” is inspired by actual events in the late 1990s when Hasidic Jews were recruited as mules to smuggle ecstasy from Europe into the United States. It is the story of a young Hasid from an Orthodox Brooklyn community whose neighbor propositions him to transport “medicine” for an Israeli dealer and his girlfriend. He is exposed to the exciting and gritty worlds of Manhattan and Amsterdam nightlife, and as the business grows, his double life begins to rip his family apart and the community becomes suspicious of his illegal activities. Caught between life as a smuggler and the path back to God, he goes on the run, forced to make a fatal decision that could bring the entire operation crashing down.
Wupload :
http://www.wupload.com/file/11871282....mkv.part1.rar
http://www.wupload.com/file/11869200....mkv.part2.rar
http://www.wupload.com/file/11867972....mkv.part3.rar
http://www.wupload.com/file/11875255....mkv.part4.rar
http://www.wupload.com/file/11875113....mkv.part5.rar

Fileserve :
http://www.fileserve.com/file/GW382S....mkv.part1.rar
http://www.fileserve.com/file/R2egnX....mkv.part2.rar
http://www.fileserve.com/file/R9jq2U....mkv.part3.rar
http://www.fileserve.com/file/SmhaKA....mkv.part4.rar
http://www.fileserve.com/file/VsjnS6....mkv.part5.rar

Filejungle :
http://www.filejungle.com/f/G6SSvu/H....mkv.part1.rar
http://www.filejungle.com/f/PCkqvu/H....mkv.part2.rar
http://www.filejungle.com/f/MUAGke/H....mkv.part3.rar
http://www.filejungle.com/f/72WhSR/H....mkv.part4.rar
http://www.filejungle.com/f/zyEKZB/H....mkv.part5.rar

Filesonic :
http://www.filesonic.com/file/274342....mkv.part1.rar
http://www.filesonic.com/file/274343....mkv.part2.rar
http://www.filesonic.com/file/274344....mkv.part3.rar
http://www.filesonic.com/file/274346....mkv.part4.rar
http://www.filesonic.com/file/274355....mkv.part5.rar

PLEASE REPLY IF YOU LIKE MY POST!

SCREENSHOT :


NFO :
General
Unique ID : 248536983759255548073083692621993556452 (0xBAFA7B5FD3DEE529B13602FD4D4339E4)
Complete name : Holy.Rollers.2010.m720p.BluRay.x264-Jewelraz.mkv
Format : Matroska
Format version : Version 2
File size : 2.12 GiB
Duration : 1h 28mn
Overall bit rate : 3 424 Kbps
Encoded date : UTC 2011-10-26 05:08:13
Writing application : mkvmerge v5.0.0 ('Die Wahre Liebe') built on Sep 25 2011 20:33:49
Writing library : libebml v1.2.2 + libmatroska v1.3.0

Video
ID : 1
Format : AVC
Format/Info : Advanced Video Codec
Format profile : [email protected]
Format settings, CABAC : Yes
Format settings, ReFrames : 9 frames
Muxing mode : Header stripping
Codec ID : V_MPEG4/ISO/AVC
Duration : 1h 28mn
Bit rate : 3 041 Kbps
Width : 1 280 pixels
Height : 696 pixels
Display aspect ratio : 16:9
Frame rate : 23.976 fps
Color space : YUV
Chroma subsampling : 4:2:0
Bit depth : 8 bits
Scan type : Progressive
Bits/(Pixel*Frame) : 0.142
Stream size : 1.84 GiB (87%)
Writing library : x264 core 116 r2074 2641b9e
Encoding settings : cabac=1 / ref=9 / deblock=1:-5:-5 / analyse=0x3:0x133 / me=umh / subme=9 / psy=1 / psy_rd=1.00:0.15 / mixed_ref=1 / me_range=32 / chroma_me=1 / trellis=1 / 8x8dct=1 / cqm=0 / deadzone=21,11 / fast_pskip=1 / chroma_qp_offset=-7 / threads=12 / sliced_threads=0 / slices=4 / nr=0 / decimate=1 / interlaced=0 / bluray_compat=0 / constrained_intra=0 / bframes=6 / b_pyramid=2 / b_adapt=1 / b_bias=0 / direct=1 / weightb=1 / open_gop=0 / weightp=2 / keyint=24 / keyint_min=2 / scenecut=40 / intra_refresh=0 / rc_lookahead=24 / rc=2pass / mbtree=1 / bitrate=3041 / ratetol=1.0 / qcomp=0.60 / qpmin=0 / qpmax=69 / qpstep=4 / cplxblur=20.0 / qblur=0.5 / ip_ratio=1.40 / aq=1:1.00

Audio
ID : 2
Format : AC-3
Format/Info : Audio Coding 3
Mode extension : CM (complete main)
Muxing mode : Header stripping
Codec ID : A_AC3
Duration : 1h 28mn
Bit rate mode : Constant
Bit rate : 384 Kbps
Channel(s) : 6 channels
Channel positions : Front: L C R, Side: L R, LFE
Sampling rate : 48.0 KHz
Bit depth : 16 bits
Compression mode : Lossy
Stream size : 244 MiB (11%)
Title : [email protected]

Text
ID : 3
Format : UTF-8
Codec ID : S_TEXT/UTF8
Codec ID/Info : UTF-8 Plain Text