The Three Musketeers 2011 TS XviD READNFO - DTRG

iNFo:
http://www.imdb.com/title/tt1509767/
Video
ID : 0
Format : MPEG-4 Visual
Format profile : Advanced [email protected]
Format settings, BVOP : 2
Format settings, QPel : No
Format settings, GMC : No warppoints
Format settings, Matrix : Default (H.263)
Muxing mode : Packed bitstream
Codec ID : XVID
Codec ID/Hint : XviD
Duration : 1h 45mn
Bit rate : 2 070 Kbps
Width : 672 pixels
Height : 282 pixels
Display aspect ratio : 2.40:1
Frame rate : 25.000 fps
Color space : YUV
Chroma subsampling : 4:2:0
Bit depth : 8 bits
Scan type : Progressive
Compression mode : Lossy
Bits/(Pixel*Frame) : 0.437
Stream size : 1.52 GiB (94%)
Writing library : XviD 64

Audio
ID : 1
Format : MPEG Audio
Format version : Version 1
Format profile : Layer 3
Mode : Joint stereo
Codec ID : 55
Codec ID/Hint : MP3
Duration : 1h 45mn
Bit rate mode : Constant
Bit rate : 128 Kbps
Channel(s) : 2 channels
Sampling rate : 44.1 KHz
Compression mode : Lossy
Stream size : 96.3 MiB (6%)
Alignment : Split accross interleaves
Interleave, duration : 40 ms (1.00 video frame)
Interleave, preload duration : 500 ms



1-LINK:
http://www.wupload.com/file/10735993...ADNFO_DTRG.rar
Or
http://www.filesonic.com/file/272893...ADNFO_DTRG.rar
Or
http://www.fileserve.com/file/3RxvJh...ADNFO_DTRG.rar

450mb-iNTERCHANGEABLE:
http://www.wupload.com/file/10880039....AVI.part1.rar
http://www.wupload.com/file/10880036....AVI.part2.rar
http://www.wupload.com/file/10880038....AVI.part3.rar
http://www.wupload.com/file/10879408....AVI.part4.rar
Or
http://www.filesonic.com/file/272954....AVI.part1.rar
http://www.filesonic.com/file/272954....AVI.part2.rar
http://www.filesonic.com/file/272954....AVI.part3.rar
http://www.filesonic.com/file/272954....AVI.part4.rar
Or
http://www.fileserve.com/file/npKYDM....AVI.part1.rar
http://www.fileserve.com/file/65enQv....AVI.part2.rar
http://www.fileserve.com/file/8Nm6sY....AVI.part3.rar
http://www.fileserve.com/file/Rje8kY....AVI.part4.rar
Please-Say-Thanks-To-Keep-The-Topic-Alive.