The Son of No One 2011 DVDRip XVID AC3 HQ Hive-CM8

iNFo:
http://www.imdb.com/title/tt1535612/
General
Complete name : The.Son.of.No.One.2011.DVDRip.XVID.AC3.HQ.Hive-CM8.avi
Format : AVI
Format/Info : Audio Video Interleave
File size : 1.42 GiB
Duration : 1h 29mn
Overall bit rate : 2 257 Kbps
Writing application : Nandub v1.0rc2
Writing library : Nandub build 1853/release

Video
ID : 0
Format : MPEG-4 Visual
Format profile : Advanced [email protected]
Format settings, BVOP : 2
Format settings, QPel : Yes
Format settings, GMC : No warppoints
Format settings, Matrix : Default (H.263)
Muxing mode : Packed bitstream
Codec ID : XVID
Codec ID/Hint : XviD
Duration : 1h 29mn
Bit rate : 1 800 Kbps
Width : 720 pixels
Height : 304 pixels
Display aspect ratio : 2.35:1
Frame rate : 25.000 fps
Color space : YUV
Chroma subsampling : 4:2:0
Bit depth : 8 bits
Scan type : Progressive
Compression mode : Lossy
Bits/(Pixel*Frame) : 0.329
Stream size : 1.13 GiB (80%)
Writing library : XviD 1.2.1 (UTC 2008-12-04)

Audio
ID : 1
Format : AC-3
Format/Info : Audio Coding 3
Mode extension : CM (complete main)
Codec ID : 2000
Duration : 1h 29mn
Bit rate mode : Constant
Bit rate : 448 Kbps
Channel(s) : 6 channels
Channel positions : Front: L C R, Side: L R, LFE
Sampling rate : 48.0 KHz
Bit depth : 16 bits
Compression mode : Lossy
Stream size : 288 MiB (20%)
Alignment : Split accross interleaves
Interleave, duration : 40 ms (1.00 video frame)
Interleave, preload duration : 500 ms



1-LINK:
http://www.filesonic.com/file/271183...Q.Hive-CM8.avi
Or
http://www.wupload.com/file/92917425...Q.Hive-CM8.avi
Or
http://www.filesonic.com/file/271194...Q.Hive-CM8.rar
Or
http://www.fileserve.com/file/Q42pnu...Q.Hive-CM8.rar

450mb-iNTERCHANGEABLE:
http://www.wupload.com/file/93547305....avi.part1.rar
http://www.wupload.com/file/93539622....avi.part2.rar
http://www.wupload.com/file/93546960....avi.part3.rar
http://www.wupload.com/file/93523964....avi.part4.rar
Or
http://www.filesonic.com/file/271194....avi.part1.rar
http://www.filesonic.com/file/271194....avi.part2.rar
http://www.filesonic.com/file/271194....avi.part3.rar
http://www.filesonic.com/file/271194....avi.part4.rar
Or
http://www.fileserve.com/file/QQz3nz....avi.part1.rar
http://www.fileserve.com/file/h8TKK2....avi.part2.rar
http://www.fileserve.com/file/DxaSjt....avi.part3.rar
http://www.fileserve.com/file/ncAEfp....avi.part4.rar
Please-Say-Thanks-To-Keep-The-Topic-Alive.