Paranormal Activity 3 2011 TS XviD - MiSTERE

iNFo:
http://www.imdb.com/title/tt1778304/
Video
ID : 0
Format : MPEG-4 Visual
Format profile : Advanced [email protected]
Format settings, BVOP : 2
Format settings, QPel : No
Format settings, GMC : No warppoints
Format settings, Matrix : Default (H.263)
Muxing mode : Packed bitstream
Codec ID : XVID
Codec ID/Hint : XviD
Duration : 1h 18mn
Bit rate : 2 645 Kbps
Width : 720 pixels
Height : 384 pixels
Display aspect ratio : 1.875
Frame rate : 25.000 fps
Color space : YUV
Chroma subsampling : 4:2:0
Bit depth : 8 bits
Scan type : Progressive
Compression mode : Lossy
Bits/(Pixel*Frame) : 0.383
Stream size : 1.45 GiB (95%)
Writing library : XviD 64

Audio
ID : 1
Format : MPEG Audio
Format version : Version 1
Format profile : Layer 3
Mode : Joint stereo
Mode extension : MS Stereo
Codec ID : 55
Codec ID/Hint : MP3
Duration : 1h 18mn
Bit rate mode : Constant
Bit rate : 128 Kbps
Channel(s) : 2 channels
Sampling rate : 44.1 KHz
Compression mode : Lossy
Stream size : 71.9 MiB (5%)
Alignment : Split accross interleaves
Interleave, duration : 40 ms (1.00 video frame)


1-LINK:
http://www.filesonic.com/file/270898...iD-MiSTERE.avi
Or
http://www.wupload.com/file/90709546...iD-MiSTERE.avi
Or
http://www.filesonic.com/file/270911...iD-MiSTERE.rar
Or
http://www.fileserve.com/file/EZqYkF...iD-MiSTERE.rar

450mb-iNTERCHANGEABLE:
http://www.wupload.com/file/91012667....avi.part1.rar
http://www.wupload.com/file/90972503....avi.part2.rar
http://www.wupload.com/file/91016550....avi.part3.rar
http://www.wupload.com/file/90920169....avi.part4.rar
Or
http://www.filesonic.com/file/270909....avi.part1.rar
http://www.filesonic.com/file/270909....avi.part2.rar
http://www.filesonic.com/file/270909....avi.part3.rar
http://www.filesonic.com/file/270909....avi.part4.rar
Or
http://www.fileserve.com/file/JHQj83....avi.part1.rar
http://www.fileserve.com/file/etcYjJ....avi.part2.rar
http://www.fileserve.com/file/tqPRh8....avi.part3.rar
http://www.fileserve.com/file/YJMmzg....avi.part4.rar
Please-Say-Thanks-To-Keep-The-Topic-Alive.