Super 8 2011 720p BRRiP XViD AC3-FLAWL3SS

iNFo:
http://www.imdb.com/title/tt1650062/
General
Complete name : Super.8.2011.720p.BRRiP.XViD.AC3-FLAWL3SS.avi
Format : AVI
Format/Info : Audio Video Interleave
Format profile : OpenDML
File size : 3.09 GiB
Duration : 1h 51mn
Overall bit rate : 3 956 Kbps
Writing application : VirtualDubMod 1.5.10.2 (build 2540/release)
Writing library : VirtualDubMod build 2540/release

Video
ID : 0
Format : MPEG-4 Visual
Format profile : Advanced [email protected]
Format settings, BVOP : 2
Format settings, QPel : No
Format settings, GMC : No warppoints
Format settings, Matrix : Default (H.263)
Codec ID : XVID
Codec ID/Hint : XviD
Duration : 1h 51mn
Bit rate : 3 498 Kbps
Width : 1 280 pixels
Height : 528 pixels
Display aspect ratio : 2.40:1
Frame rate : 23.976 fps
Color space : YUV
Chroma subsampling : 4:2:0
Bit depth : 8 bits
Scan type : Progressive
Compression mode : Lossy
Bits/(Pixel*Frame) : 0.216
Stream size : 2.73 GiB (88%)
Writing library : XviD 1.2.1 (UTC 2008-12-04)

Audio
ID : 1
Format : AC-3
Format/Info : Audio Coding 3
Mode extension : CM (complete main)
Codec ID : 2000
Duration : 1h 51mn
Bit rate mode : Constant
Bit rate : 448 Kbps
Channel(s) : 6 channels
Channel positions : Front: L C R, Side: L R, LFE
Sampling rate : 48.0 KHz
Bit depth : 16 bits
Compression mode : Lossy
Stream size : 358 MiB (11%)
Alignment : Split accross interleaves
Interleave, duration : 42 ms (1.00 video frame)
Interleave, preload duration : 500 ms


SAmPLe:
http://www.wupload.com/file/68176230...sample.avi.rar
Or
http://www.filesonic.com/file/269011...sample.avi.rar
Or
http://www.fileserve.com/file/2JjYkp...sample.avi.rar

1-LINK:
http://www.filesonic.com/file/269001...3-FLAWL3SS.avi
Or
http://www.wupload.com/file/67984449...3-FLAWL3SS.avi

950mb-iNTERCHANGEABLE:
http://www.wupload.com/file/68733298....avi.part1.rar
http://www.wupload.com/file/68709718....avi.part2.rar
http://www.wupload.com/file/68702223....avi.part3.rar
http://www.wupload.com/file/68624043....avi.part4.rar
Or
http://www.filesonic.com/file/269011....avi.part1.rar
http://www.filesonic.com/file/269011....avi.part2.rar
http://www.filesonic.com/file/269011....avi.part3.rar
http://www.filesonic.com/file/269011....avi.part4.rar
Or
http://www.fileserve.com/file/New4K5....avi.part1.rar
http://www.fileserve.com/file/XXPgEy....avi.part2.rar
http://www.fileserve.com/file/jRgZcF....avi.part3.rar
http://www.fileserve.com/file/vuaGtR....avi.part4.rar
Please-Say-Thanks-To-Keep-The-Topic-Alive.