4 Single Fathers 2009 DVDRip XviD-aAF



IMDB :
http://www.imdb.com/title/tt1252289/



Synopsis:
Plot: This is the story of four Italian men living in one of the greatest cities on earth, New York. After falling in love with American women, moving to Manhattan, having children and expecting to live the American dream, these men end up divorced living the American reality. Single fatherhood wives, ex-wives, future ex-wives, girlfriends, private schools and just everyday living are just some of the things that keep their lives in a constant state of chaos. And they will realize soon enough that they need each other to help figure it all out.
Wupload :
http://www.wupload.com/file/67915118...p.xvid.avi.rar

Fileserve :
http://www.fileserve.com/file/2gCDhs...p.xvid.avi.rar

Filejungle :
http://www.filejungle.com/f/tKsFXN/a...p.xvid.avi.rar

Filesonic :
http://www.filesonic.com/file/268956...p.xvid.avi.rar

PLEASE REPLY IF YOU LIKE MY POST!

SCREENSHOT :


NFO :
General
Complete name : aaf-4.single.fathers.2009.dvdrip.xvid.avi
Format : AVI
Format/Info : Audio Video Interleave
File size : 700 MiB
Duration : 1h 34mn
Overall bit rate : 1 035 Kbps
Writing application : VirtualDubMod 1.5.10.2 (build 2540/release)
Writing library : VirtualDubMod build 2540/release

Video
ID : 0
Format : MPEG-4 Visual
Format profile : Advanced [email protected]
Format settings, BVOP : 2
Format settings, QPel : No
Format settings, GMC : No warppoints
Format settings, Matrix : Default (H.263)
Codec ID : XVID
Codec ID/Hint : XviD
Duration : 1h 34mn
Bit rate : 890 Kbps
Width : 624 pixels
Height : 352 pixels
Display aspect ratio : 16:9
Frame rate : 25.000 fps
Color space : YUV
Chroma subsampling : 4:2:0
Bit depth : 8 bits
Scan type : Progressive
Compression mode : Lossy
Bits/(Pixel*Frame) : 0.162
Stream size : 602 MiB (86%)
Writing library : XviD 64

Audio
ID : 1
Format : MPEG Audio
Format version : Version 1
Format profile : Layer 3
Mode : Joint stereo
Mode extension : MS Stereo
Codec ID : 55
Codec ID/Hint : MP3
Duration : 1h 34mn
Bit rate mode : Variable
Bit rate : 128 Kbps
Channel(s) : 2 channels
Sampling rate : 48.0 KHz
Compression mode : Lossy
Stream size : 89.1 MiB (13%)
Alignment : Aligned on interleaves
Interleave, duration : 24 ms (0.60 video frame)
Interleave, preload duration : 139 ms
Writing library : LAME3.90.
Encoding settings : -m j -V 4 -q 2 -lowpass 17.6 --abr 128