Super.8.2011.480p.BRRip.XviD.AC3-ViSiON



IMDB :
http://www.imdb.com/title/tt1650062/



Synopsis:
In the summer of 1979, a group of friends in a small Ohio town witness a catastrophic train crash while making a super 8 movie and soon suspect that it was not an accident. Shortly after, unusual disappearances and inexplicable events begin to take place in town, and the local Deputy tries to uncover the truth – something more terrifying than any of them could have imagined
Wupload :
http://www.wupload.com/file/67194970....avi.part1.rar
http://www.wupload.com/file/67205125....avi.part2.rar
http://www.wupload.com/file/67205138....avi.part3.rar

Fileserve :
http://www.fileserve.com/file/2wchG6....avi.part1.rar
http://www.fileserve.com/file/7kJY7M....avi.part2.rar
http://www.fileserve.com/file/WDYC7V....avi.part3.rar

Filejungle :
http://www.filejungle.com/f/6KMuy6/S....avi.part1.rar
http://www.filejungle.com/f/K7tdwE/S....avi.part2.rar
http://www.filejungle.com/f/ZCDXA9/S....avi.part3.rar

Filesonic :
http://www.filesonic.com/file/268936....avi.part1.rar
http://www.filesonic.com/file/268936....avi.part2.rar
http://www.filesonic.com/file/268936....avi.part3.rar

PLEASE REPLY IF YOU LIKE MY POST!

SCREENSHOT :


NFO :
General
Complete name : Super.8.2011.480p.BRRip.XviD.AC3-ViSiON.avi
Format : AVI
Format/Info : Audio Video Interleave
File size : 1.45 GiB
Duration : 1h 51mn
Overall bit rate : 1 859 Kbps
Writing application : VirtualDubMod 1.5.10.2 (build 2542/release)
Writing library : VirtualDubMod build 2542/release

Video
ID : 0
Format : MPEG-4 Visual
Format profile : Advanced [email protected]
Format settings, BVOP : 1
Format settings, QPel : No
Format settings, GMC : No warppoints
Format settings, Matrix : Custom
Muxing mode : Packed bitstream
Codec ID : XVID
Codec ID/Hint : XviD
Duration : 1h 51mn
Bit rate : 1 402 Kbps
Width : 720 pixels
Height : 304 pixels
Display aspect ratio : 2.35:1
Frame rate : 23.976 fps
Color space : YUV
Chroma subsampling : 4:2:0
Bit depth : 8 bits
Scan type : Progressive
Compression mode : Lossy
Bits/(Pixel*Frame) : 0.267
Stream size : 1.09 GiB (75%)
Writing library : XviD 1.2.1 (UTC 2008-12-04)

Audio
ID : 1
Format : AC-3
Format/Info : Audio Coding 3
Mode extension : CM (complete main)
Codec ID : 2000
Duration : 1h 51mn
Bit rate mode : Constant
Bit rate : 448 Kbps
Channel(s) : 6 channels
Channel positions : Front: L C R, Side: L R, LFE
Sampling rate : 48.0 KHz
Bit depth : 16 bits
Compression mode : Lossy
Stream size : 358 MiB (24%)
Alignment : Split accross interleaves
Interleave, duration : 42 ms (1.00 video frame)
Interleave, preload duration : 500 ms