Without Men 2011 DvDRIp XviD-P2P

iNFo:
1.
File size : 702 MiB
2.
Duration : 1h 26mn
3.
Overall bit rate : 1 132 Kbps
4.
Sample Included
5.
IMDb Link: http://www.imdb.com/title/tt1547090/
6.
IMDb Rating: 2.6/10 from 165 users
7.

8.
Video
9.
ID : 0
10.
Format : MPEG-4 Visual
11.
Format profile : Advanced [email protected]
12.
Format settings, BVOP : 2
13.
Format settings, QPel : No
14.
Format settings, GMC : No warppoints
15.
Format settings, Matrix : Default (H.263)
16.
Codec ID : XVID
17.
Codec ID/Hint : XviD
18.
Duration : 1h 26mn
19.
Bit rate : 998 Kbps
20.
Width : 672 pixels
21.
Height : 368 pixels
22.
Display aspect ratio : 16:9
23.
Frame rate : 23.976 fps
24.
Color space : YUV
25.
Chroma subsampling : 4:2:0
26.
Bit depth : 8 bits
27.
Scan type : Progressive
28.
Compression mode : Lossy
29.
Bits/(Pixel*Frame) : 0.168
30.
Stream size : 619 MiB (88%)
31.
Writing library : XviD 1.2.1 (UTC 2008-12-04)
32.

33.
Audio
34.
ID : 1
35.
Format : MPEG Audio
36.
Format version : Version 1
37.
Format profile : Layer 3
38.
Mode : Joint stereo
39.
Mode extension : MS Stereo
40.
Codec ID : 55
41.
Codec ID/Hint : MP3
42.
Duration : 1h 26mn
43.
Bit rate mode : Constant
44.
Bit rate : 128 Kbps
45.
Channel(s) : 2 channels
46.
Sampling rate : 48.0 KHz
47.
Compression mode : Lossy
48.
Stream size : 79.3 MiB (11%)
49.
Alignment : Aligned on interleaves
50.
Interleave, duration : 167 ms (4.00 video frames)
51.
Interleave, preload duration : 216 ms




SAmPLe:
http://www.wupload.com/file/65666116...SAMPLE.avi.rar
Or
http://www.filesonic.com/file/268817...SAMPLE.avi.rar
Or
http://www.fileserve.com/file/TTyJ2j...SAMPLE.avi.rar

1-LINK:
http://www.wupload.com/file/65648736...VDRIP.Xvid.avi
Or
http://www.filesonic.com/file/268817...P.Xvid.avi.rar
Or
http://www.fileserve.com/file/rWJUsa...P.Xvid.avi.rar
Please-Say-Thanks-To-Keep-The-Topic-Alive.