The.Hangover.2.2011.DVDRip.XviD-Vrxuniique



IMDB :
http://www.imdb.com/title/tt1411697/



Synopsis:
Plot: Two years after the bachelor party in Las Vegas, Phil, Stu, Alan, and Doug jet to Thailand for Stu’s wedding. Stu’s plan for a subdued pre-wedding brunch, however, goes seriously awry.
Wupload :
http://www.wupload.com/file/63583732...niique.avi.rar

Fileserve :
http://www.fileserve.com/file/PH7WCP...niique.avi.rar

Filejungle :
http://www.filejungle.com/f/Zyxy8j/T...niique.avi.rar

Filesonic :
http://www.filesonic.com/file/268322...niique.avi.rar
Or
http://www.filesonic.com/file/268326...ique.part1.rar
http://www.filesonic.com/file/268326...ique.part2.rar
http://www.filesonic.com/file/268326...ique.part3.rar
http://www.filesonic.com/file/268326...ique.part4.rar

PLEASE REPLY IF YOU LIKE MY POST!

SCREENSHOT :


NFO :
General
Complete name : The.Hangover.2.2011.DVDRip.XviD-Vrxuniique.avi
Format : AVI
Format/Info : Audio Video Interleave
Format profile : OpenDML
Format settings : rec
File size : 1.47 GiB
Duration : 1h 37mn
Overall bit rate : 2 151 Kbps
Writing application : AVI-Mux GUI 1.17.8.3, Feb 16 201019:42:50

Video
ID : 0
Format : MPEG-4 Visual
Format profile : Advanced [email protected]
Format settings, BVOP : 1
Format settings, QPel : No
Format settings, GMC : No warppoints
Format settings, Matrix : Custom
Codec ID : XVID
Codec ID/Hint : XviD
Duration : 1h 37mn
Bit rate : 1 950 Kbps
Width : 672 pixels
Height : 288 pixels
Display aspect ratio : 2.35:1
Frame rate : 29.970 fps
Color space : YUV
Chroma subsampling : 4:2:0
Bit depth : 8 bits
Scan type : Progressive
Compression mode : Lossy
Bits/(Pixel*Frame) : 0.336
Stream size : 1.33 GiB (91%)
Writing library : XviD 1.2.1 (UTC 2008-12-04)

Audio
ID : 1
Format : MPEG Audio
Format version : Version 1
Format profile : Layer 3
Mode : Joint stereo
Codec ID : 55
Codec ID/Hint : MP3
Duration : 1h 37mn
Bit rate mode : Constant
Bit rate : 192 Kbps
Channel(s) : 2 channels
Sampling rate : 48.0 KHz
Compression mode : Lossy
Stream size : 134 MiB (9%)
Alignment : Aligned on interleaves
Interleave, duration : 24 ms (0.72 video frame)
Interleave, preload duration : 192 ms
Title : The.Hangover.Part.II.2011.DVDRip