Trespass.2011.BRRip.AC3.H264-CRYS



IMDB :
http://www.imdb.com/title/tt1674784/



Synopsis:
Plot: As they’re held for ransom, a husband and wife’s predicament grows more dire amid the discovery of betrayal and deception.
Wupload :
http://www.wupload.com/file/62616897...4-CRYS.mkv.rar

Fileserve :
http://www.fileserve.com/file/FyaUx3...4-CRYS.mkv.rar

Filejungle :
http://www.filejungle.com/f/hRRHw7/T...4-CRYS.mkv.rar

Filesonic :
http://www.filesonic.com/file/268200...4-CRYS.mkv.rar

PLEASE REPLY IF YOU LIKE MY POST!

SCREENSHOT :


NFO :
General
Complete name : Trespass.2011.BRRip.AC3.H264-CRYS.mkv
Format : Matroska
File size : 711 MiB
Duration : 1h 30mn
Overall bit rate : 1 096 Kbps
Encoded date : UTC 2011-10-19 21:11:45
Writing library : WonderShare Matroska Muxer

Video
ID : 1
Format : AVC
Format/Info : Advanced Video Codec
Format profile : [email protected]
Format settings, CABAC : No
Format settings, ReFrames : 1 frame
Format settings, GOP : M=1, N=25
Codec ID : V_MPEG4/ISO/AVC
Duration : 1h 30mn
Bit rate : 946 Kbps
Width : 720 pixels
Height : 304 pixels
Display aspect ratio : 2.35:1
Frame rate : 23.976 fps
Original frame rate : 23.000 fps
Color space : YUV
Chroma subsampling : 4:2:0
Bit depth : 8 bits
Scan type : Progressive
Bits/(Pixel*Frame) : 0.180
Stream size : 614 MiB (86%)

Audio
ID : 2
Format : AC-3
Format/Info : Audio Coding 3
Mode extension : CM (complete main)
Codec ID : A_AC3
Duration : 1h 30mn
Bit rate mode : Constant
Bit rate : 128 Kbps
Channel(s) : 2 channels
Channel positions : Front: L R
Sampling rate : 48.0 KHz
Bit depth : 16 bits
Compression mode : Lossy
Stream size : 83.0 MiB (12%)