Trespass.2011.480p.BRRip.Xvid.AC3-LTRG



IMDB :
http://www.imdb.com/title/tt1674784/



Synopsis:
Plot: As they’re held for ransom, a husband and wife’s predicament grows more dire amid the discovery of betrayal and deception.
Wupload :
http://www.wupload.com/file/62546062....avi.part1.rar
http://www.wupload.com/file/62546170....avi.part2.rar
http://www.wupload.com/file/62546211....avi.part3.rar

Fileserve :
http://www.fileserve.com/file/MZGhrb....avi.part1.rar
http://www.fileserve.com/file/GppUZf....avi.part2.rar
http://www.fileserve.com/file/WhnWuS....avi.part3.rar

Filejungle :
http://www.filejungle.com/f/wB9Zd2/T....avi.part1.rar
http://www.filejungle.com/f/HtdGGq/T....avi.part2.rar
http://www.filejungle.com/f/Cf7VkK/T....avi.part3.rar

Filesonic :
http://www.filesonic.com/file/268186....avi.part1.rar
http://www.filesonic.com/file/268186....avi.part2.rar
http://www.filesonic.com/file/268187....avi.part3.rar

PLEASE REPLY IF YOU LIKE MY POST!

SCREENSHOT :


NFO :
General
Complete name : Trespass.2011.480p.BRRip.Xvid.AC3-LTRG.avi
Format : AVI
Format/Info : Audio Video Interleave
File size : 1.45 GiB
Duration : 1h 30mn
Overall bit rate : 2 292 Kbps
Writing application : VirtualDubMod 1.5.10.1 (build 2366/release)
Writing library : VirtualDubMod build 2366/release

Video
ID : 0
Format : MPEG-4 Visual
Format profile : Advanced [email protected]
Format settings, BVOP : 2
Format settings, QPel : No
Format settings, GMC : No warppoints
Format settings, Matrix : Default (MPEG)
Codec ID : XVID
Codec ID/Hint : XviD
Duration : 1h 30mn
Bit rate : 1 835 Kbps
Width : 720 pixels
Height : 304 pixels
Display aspect ratio : 2.35:1
Frame rate : 23.976 fps
Color space : YUV
Chroma subsampling : 4:2:0
Bit depth : 8 bits
Scan type : Progressive
Compression mode : Lossy
Bits/(Pixel*Frame) : 0.350
Stream size : 1.16 GiB (80%)
Writing library : XviD 1.2.1 (UTC 2008-12-04)

Audio
ID : 1
Format : AC-3
Format/Info : Audio Coding 3
Mode extension : CM (complete main)
Codec ID : 2000
Duration : 1h 30mn
Bit rate mode : Constant
Bit rate : 448 Kbps
Channel(s) : 6 channels
Channel positions : Front: L C R, Side: L R, LFE
Sampling rate : 48.0 KHz
Bit depth : 16 bits
Compression mode : Lossy
Stream size : 291 MiB (20%)
Alignment : Split accross interleaves
Interleave, duration : 42 ms (1.00 video frame)
Interleave, preload duration : 500 ms