Retreat.2011.480p.BRRip.Xvid.AC3-LTRG



IMDB :
http://www.imdb.com/title/tt1410051/



Synopsis:
Kate and Martin escape from personal tragedy to an Island Retreat. Cut off from the outside world, their attempts to recover are shattered when a Man is washed ashore, with news of airborne killer disease that is sweeping through Europe.
Wupload :
http://www.wupload.com/file/62540851....avi.part1.rar
http://www.wupload.com/file/62540953....avi.part2.rar
http://www.wupload.com/file/62541274....avi.part3.rar
http://www.wupload.com/file/62541377....avi.part4.rar

Fileserve :
http://www.fileserve.com/file/h4au5e....avi.part1.rar
http://www.fileserve.com/file/gm36R4....avi.part2.rar
http://www.fileserve.com/file/NB9Ehx....avi.part3.rar
http://www.fileserve.com/file/2C6gF4....avi.part4.rar

Filejungle :
http://www.filejungle.com/f/uSyJzb/R....avi.part1.rar
http://www.filejungle.com/f/2SMkyc/R....avi.part2.rar
http://www.filejungle.com/f/UmkKGd/R....avi.part3.rar
http://www.filejungle.com/f/ygkaE7/R....avi.part4.rar

Filesonic :
http://www.filesonic.com/file/268178....avi.part1.rar
http://www.filesonic.com/file/268178....avi.part2.rar
http://www.filesonic.com/file/268178....avi.part3.rar
http://www.filesonic.com/file/268178....avi.part4.rar

PLEASE REPLY IF YOU LIKE MY POST!

SCREENSHOT :


NFO :
General
Complete name : Retreat.2011.480p.BRRip.Xvid.AC3-LTRG.avi
Format : AVI
Format/Info : Audio Video Interleave
File size : 1.79 GiB
Duration : 1h 29mn
Overall bit rate : 2 849 Kbps
Writing application : VirtualDubMod 1.5.10.1 (build 2366/release)
Writing library : VirtualDubMod build 2366/release

Video
ID : 0
Format : MPEG-4 Visual
Format profile : Advanced [email protected]
Format settings, BVOP : 2
Format settings, QPel : No
Format settings, GMC : No warppoints
Format settings, Matrix : Default (MPEG)
Codec ID : XVID
Codec ID/Hint : XviD
Duration : 1h 29mn
Bit rate : 2 391 Kbps
Width : 720 pixels
Height : 304 pixels
Display aspect ratio : 2.35:1
Frame rate : 24.000 fps
Color space : YUV
Chroma subsampling : 4:2:0
Bit depth : 8 bits
Scan type : Progressive
Compression mode : Lossy
Bits/(Pixel*Frame) : 0.455
Stream size : 1.50 GiB (84%)
Writing library : XviD 1.2.1 (UTC 2008-12-04)

Audio
ID : 1
Format : AC-3
Format/Info : Audio Coding 3
Mode extension : CM (complete main)
Codec ID : 2000
Duration : 1h 29mn
Bit rate mode : Constant
Bit rate : 448 Kbps
Channel(s) : 6 channels
Channel positions : Front: L C R, Side: L R, LFE
Sampling rate : 48.0 KHz
Bit depth : 16 bits
Compression mode : Lossy
Stream size : 288 MiB (16%)
Alignment : Split accross interleaves
Interleave, duration : 42 ms (1.00 video frame)
Interleave, preload duration : 500 ms