Trespass.2011.720p.BDRiP.XViD.AC3-FLAWL3SS



IMDB :
http://www.imdb.com/title/tt1674784/



Synopsis:
Plot: As they’re held for ransom, a husband and wife’s predicament grows more dire amid the discovery of betrayal and deception.
Wupload :
http://www.wupload.com/file/62249372....avi.part1.rar
http://www.wupload.com/file/62249793....avi.part2.rar
http://www.wupload.com/file/62249645....avi.part3.rar
http://www.wupload.com/file/62250243....avi.part4.rar

Fileserve :
http://www.fileserve.com/file/cWCjss....avi.part1.rar
http://www.fileserve.com/file/9yXau3....avi.part2.rar
http://www.fileserve.com/file/aPMbSa....avi.part3.rar
http://www.fileserve.com/file/KEeZWX....avi.part4.rar

Filejungle :
http://www.filejungle.com/f/yaAPbZ/T....avi.part1.rar
http://www.filejungle.com/f/UceKdx/T....avi.part2.rar
http://www.filejungle.com/f/pHSUPq/T....avi.part3.rar
http://www.filejungle.com/f/D9HmD8/T....avi.part4.rar

Filesonic :
http://www.filesonic.com/file/268144....avi.part1.rar
http://www.filesonic.com/file/268145....avi.part2.rar
http://www.filesonic.com/file/268145....avi.part3.rar
http://www.filesonic.com/file/268145....avi.part4.rar

PLEASE REPLY IF YOU LIKE MY POST!

SCREENSHOT :


NFO :
General
Complete name : Trespass.2011.720p.BDRiP.XViD.AC3-FLAWL3SS.avi
Format : AVI
Format/Info : Audio Video Interleave
Format profile : OpenDML
File size : 2.51 GiB
Duration : 1h 30mn
Overall bit rate : 3 956 Kbps
Writing application : VirtualDubMod 1.5.10.2 (build 2540/release)
Writing library : VirtualDubMod build 2540/release

Video
ID : 0
Format : MPEG-4 Visual
Format profile : Advanced [email protected]
Format settings, BVOP : 2
Format settings, QPel : No
Format settings, GMC : No warppoints
Format settings, Matrix : Default (H.263)
Codec ID : XVID
Codec ID/Hint : XviD
Duration : 1h 30mn
Bit rate : 3 497 Kbps
Width : 1 280 pixels
Height : 528 pixels
Display aspect ratio : 2.40:1
Frame rate : 23.976 fps
Color space : YUV
Chroma subsampling : 4:2:0
Bit depth : 8 bits
Scan type : Progressive
Compression mode : Lossy
Bits/(Pixel*Frame) : 0.216
Stream size : 2.22 GiB (88%)
Writing library : XviD 1.2.1 (UTC 2008-12-04)

Audio
ID : 1
Format : AC-3
Format/Info : Audio Coding 3
Mode extension : CM (complete main)
Codec ID : 2000
Duration : 1h 30mn
Bit rate mode : Constant
Bit rate : 448 Kbps
Channel(s) : 6 channels
Channel positions : Front: L C R, Side: L R, LFE
Sampling rate : 48.0 KHz
Bit depth : 16 bits
Compression mode : Lossy
Stream size : 291 MiB (11%)
Alignment : Split accross interleaves
Interleave, duration : 42 ms (1.00 video frame)
Interleave, preload duration : 500 ms