Screwed.2011.480p.BRRip.Xvid.AC3-LTRG



IMDB :
http://www.imdb.com/title/tt1727816/



Synopsis:
Plot: The film is a semi-biographical story based on the experiences of former prison guard Ronnie Thompson who spent seven years working in some of the UK’s most dangerous prisons. Based on Thompson’s book of the same name, the project stars James D’Arcy (Master & Commander), Noel Clarke (Kidulthood), Frank Harper (The Football Factory), Jamie Foreman (Layer Cake), Andrew Shim (This Is England) and Kate Magowan (Stardust). The story revolves around former soldier Sam Norwood who takes a job as a prison officer when he returns from Iraq and becomes exposed to the underworld of prison culture – including corrupt guards and drug trafficking.
Wupload :
http://www.wupload.com/file/62244476....avi.part1.rar
http://www.wupload.com/file/62244495....avi.part2.rar
http://www.wupload.com/file/62244535....avi.part3.rar
http://www.wupload.com/file/62244517....avi.part4.rar

Fileserve :
http://www.fileserve.com/file/4Hsek2....avi.part1.rar
http://www.fileserve.com/file/AZKwpu....avi.part2.rar
http://www.fileserve.com/file/QVKxfZ....avi.part3.rar
http://www.fileserve.com/file/CuMK7E....avi.part4.rar

Filejungle :
http://www.filejungle.com/f/dWyXpZ/S....avi.part1.rar
http://www.filejungle.com/f/Qmyzr4/S....avi.part2.rar
http://www.filejungle.com/f/z4KNEj/S....avi.part3.rar
http://www.filejungle.com/f/YKMvQv/S....avi.part4.rar

Filesonic :
http://www.filesonic.com/file/268132....avi.part1.rar
http://www.filesonic.com/file/268133....avi.part2.rar
http://www.filesonic.com/file/268133....avi.part3.rar
http://www.filesonic.com/file/268133....avi.part4.rar

PLEASE REPLY IF YOU LIKE MY POST!

SCREENSHOT :


NFO :
General
Complete name : Screwed.2011.480p.BRRip.Xvid.AC3-LTRG.avi
Format : AVI
Format/Info : Audio Video Interleave
File size : 1.75 GiB
Duration : 1h 49mn
Overall bit rate : 2 282 Kbps
Writing application : VirtualDubMod 1.5.10.1 (build 2366/release)
Writing library : VirtualDubMod build 2366/release

Video
ID : 0
Format : MPEG-4 Visual
Format profile : Advanced [email protected]
Format settings, BVOP : 2
Format settings, QPel : No
Format settings, GMC : No warppoints
Format settings, Matrix : Default (MPEG)
Codec ID : XVID
Codec ID/Hint : XviD
Duration : 1h 49mn
Bit rate : 1 825 Kbps
Width : 720 pixels
Height : 304 pixels
Display aspect ratio : 2.35:1
Frame rate : 24.000 fps
Color space : YUV
Chroma subsampling : 4:2:0
Bit depth : 8 bits
Scan type : Progressive
Compression mode : Lossy
Bits/(Pixel*Frame) : 0.347
Stream size : 1.40 GiB (80%)
Writing library : XviD 1.2.1 (UTC 2008-12-04)

Audio
ID : 1
Format : AC-3
Format/Info : Audio Coding 3
Mode extension : CM (complete main)
Codec ID : 2000
Duration : 1h 49mn
Bit rate mode : Constant
Bit rate : 448 Kbps
Channel(s) : 6 channels
Channel positions : Front: L C R, Side: L R, LFE
Sampling rate : 48.0 KHz
Bit depth : 16 bits
Compression mode : Lossy
Stream size : 352 MiB (20%)
Alignment : Split accross interleaves
Interleave, duration : 42 ms (1.00 video frame)
Interleave, preload duration : 500 ms