Anneliese.The.Exorcist.Tapes.2011.480p.DVDRip.Xvid.AC3-Freebee



IMDB :
http://www.imdb.com/title/tt1911533/



Synopsis:
Plot: Documentary covering the famous ‘demonic possession’ case of Anneliese Michel. The film features authentic footage of ‘exorcisms’ and other shocking events, considered to be the inspiration of the film The Exorcism of Emily Rose (2005).
Wupload :
http://www.wupload.com/file/62146355....avi.part1.rar
http://www.wupload.com/file/62146482....avi.part2.rar
http://www.wupload.com/file/62146755....avi.part3.rar

Fileserve :
http://www.fileserve.com/file/jkHRkd....avi.part1.rar
http://www.fileserve.com/file/Va5U8U....avi.part2.rar
http://www.fileserve.com/file/rh4bUs....avi.part3.rar

Filejungle :
http://www.filejungle.com/f/3u3XFB/A....avi.part1.rar
http://www.filejungle.com/f/mD7WBa/A....avi.part2.rar
http://www.filejungle.com/f/Bcv2YS/A....avi.part3.rar

Filesonic :
http://www.filesonic.com/file/268114....avi.part1.rar
http://www.filesonic.com/file/268114....avi.part2.rar
http://www.filesonic.com/file/268114....avi.part3.rar

PLEASE REPLY IF YOU LIKE MY POST!

SCREENSHOT :


NFO :
General
Complete name : Anneliese.The.Exorcist.Tapes.2011.480p.DVDRip.Xvid.AC3-Freebee.avi
Format : AVI
Format/Info : Audio Video Interleave
Format profile : OpenDML
Format settings : rec
File size : 1.20 GiB
Duration : 1h 27mn
Overall bit rate : 1 948 Kbps
Writing application : AVI-Mux GUI 1.17.8.3, Feb 16 201019:42:50

Video
ID : 0
Format : MPEG-4 Visual
Format profile : Advanced [email protected]
Format settings, BVOP : 2
Format settings, QPel : No
Format settings, GMC : No warppoints
Format settings, Matrix : Custom
Codec ID : XVID
Codec ID/Hint : XviD
Duration : 1h 27mn
Bit rate : 1 495 Kbps
Width : 720 pixels
Height : 480 pixels
Display aspect ratio : 3:2
Frame rate : 25.000 fps
Standard : NTSC
Color space : YUV
Chroma subsampling : 4:2:0
Bit depth : 8 bits
Scan type : Progressive
Compression mode : Lossy
Bits/(Pixel*Frame) : 0.173
Stream size : 940 MiB (77%)
Writing library : XviD 64

Audio
ID : 1
Format : AC-3
Format/Info : Audio Coding 3
Mode extension : CM (complete main)
Codec ID : 2000
Duration : 1h 27mn
Bit rate mode : Constant
Bit rate : 448 Kbps
Channel(s) : 6 channels
Channel positions : Front: L C R, Side: L R, LFE
Sampling rate : 48.0 KHz
Bit depth : 16 bits
Compression mode : Lossy
Stream size : 282 MiB (23%)
Alignment : Aligned on interleaves
Interleave, duration : 64 ms (1.60 video frames)
Interleave, preload duration : 192 ms
Title : VTS_01_1 T80 2_0ch 224Kbps DELAY 0ms_new