Retreat.2011.BDRip.XVID.AC3.HQ.Hive-CM8



IMDB :
http://www.imdb.com/title/tt1410051/



Synopsis:
Kate and Martin escape from personal tragedy to an Island Retreat. Cut off from the outside world, their attempts to recover are shattered when a Man is washed ashore, with news of airborne killer disease that is sweeping through Europe.
Wupload :
http://www.wupload.com/file/61605066....avi.part1.rar
http://www.wupload.com/file/61605087....avi.part2.rar
http://www.wupload.com/file/61613480....avi.part3.rar
http://www.wupload.com/file/61615926....avi.part4.rar

Fileserve :
http://www.fileserve.com/file/V2dgR7....avi.part1.rar
http://www.fileserve.com/file/n7RzYt....avi.part2.rar
http://www.fileserve.com/file/ysWuZQ....avi.part3.rar
http://www.fileserve.com/file/ZcRtpQ....avi.part4.rar

Filejungle :
http://www.filejungle.com/f/AmxBAD/R....avi.part1.rar
http://www.filejungle.com/f/JSvwRN/R....avi.part2.rar
http://www.filejungle.com/f/YRDcdX/R....avi.part3.rar
http://www.filejungle.com/f/wskEnG/R....avi.part4.rar

Filesonic :
http://www.filesonic.com/file/268089....avi.part1.rar
http://www.filesonic.com/file/268089....avi.part2.rar
http://www.filesonic.com/file/268089....avi.part3.rar
http://www.filesonic.com/file/268089....avi.part4.rar

PLEASE REPLY IF YOU LIKE MY POST!

SCREENSHOT :


NFO :
General
Complete name : Retreat.2011.BDRip.XVID.AC3.HQ.Hive-CM8.avi
Format : AVI
Format/Info : Audio Video Interleave
File size : 1.49 GiB
Duration : 1h 29mn
Overall bit rate : 2 375 Kbps
Writing application : Nandub v1.0rc2
Writing library : Nandub build 1853/release

Video
ID : 0
Format : MPEG-4 Visual
Format profile : Advanced [email protected]
Format settings, BVOP : 1
Format settings, QPel : Yes
Format settings, GMC : No warppoints
Format settings, Matrix : Default (H.263)
Muxing mode : Packed bitstream
Codec ID : XVID
Codec ID/Hint : XviD
Duration : 1h 29mn
Bit rate : 1 981 Kbps
Width : 720 pixels
Height : 304 pixels
Display aspect ratio : 2.35:1
Frame rate : 24.000 fps
Color space : YUV
Chroma subsampling : 4:2:0
Bit depth : 8 bits
Scan type : Progressive
Compression mode : Lossy
Bits/(Pixel*Frame) : 0.377
Stream size : 1.24 GiB (83%)
Writing library : XviD 1.2.1 (UTC 2008-12-04)

Audio
ID : 1
Format : AC-3
Format/Info : Audio Coding 3
Mode extension : CM (complete main)
Codec ID : 2000
Duration : 1h 29mn
Bit rate mode : Constant
Bit rate : 384 Kbps
Channel(s) : 6 channels
Channel positions : Front: L C R, Side: L R, LFE
Sampling rate : 48.0 KHz
Bit depth : 16 bits
Compression mode : Lossy
Stream size : 247 MiB (16%)
Alignment : Split accross interleaves
Interleave, duration : 42 ms (1.00 video frame)
Interleave, preload duration : 500 ms