The Hangover Part II 2011 DVDSCR XVID AC3 HQ Hive-CM8

iNFo:
http://www.imdb.com/title/tt1411697/
General
Complete name : The.Hangover.Part.II.2011.DVDSCR.XVID.AC3.HQ.Hive-CM8.avi
Format : AVI
Format/Info : Audio Video Interleave
File size : 1.41 GiB
Duration : 1h 37mn
Overall bit rate : 2 065 Kbps
Writing application : Nandub v1.0rc2
Writing library : Nandub build 1853/release

Video
ID : 0
Format : MPEG-4 Visual
Format profile : Advanced [email protected]
Format settings, BVOP : 2
Format settings, QPel : Yes
Format settings, GMC : No warppoints
Format settings, Matrix : Default (H.263)
Muxing mode : Packed bitstream
Codec ID : XVID
Codec ID/Hint : XviD
Duration : 1h 37mn
Bit rate : 1 797 Kbps
Width : 672 pixels
Height : 288 pixels
Display aspect ratio : 2.35:1
Frame rate : 29.970 fps
Color space : YUV
Chroma subsampling : 4:2:0
Bit depth : 8 bits
Scan type : Progressive
Compression mode : Lossy
Bits/(Pixel*Frame) : 0.310
Stream size : 1.23 GiB (87%)
Writing library : XviD 1.2.1 (UTC 2008-12-04)

Audio
ID : 1
Format : AC-3
Format/Info : Audio Coding 3
Mode extension : CM (complete main)
Codec ID : 2000
Duration : 1h 37mn
Bit rate mode : Constant
Bit rate : 256 Kbps
Channel(s) : 2 channels
Channel positions : Front: L R
Sampling rate : 48.0 KHz
Bit depth : 16 bits
Compression mode : Lossy
Delay relative to video : 100ms
Stream size : 179 MiB (12%)
Alignment : Split accross interleaves
Interleave, duration : 33 ms (1.00 video frame)
Interleave, preload duration : 500 ms


1-LINK:
http://www.wupload.com/file/52227196...Q.Hive-CM8.avi
Or
http://www.filesonic.com/file/266602...Q.Hive-CM8.rar
Or
http://www.fileserve.com/file/vD7c9b...Q.Hive-CM8.rar

450mb-iNTERCHANGEABLE:
http://www.wupload.com/file/52344138....avi.part1.rar
http://www.wupload.com/file/52344140....avi.part2.rar
http://www.wupload.com/file/52344737....avi.part3.rar
http://www.wupload.com/file/52344121....avi.part4.rar
Or
http://www.filesonic.com/file/266601....avi.part1.rar
http://www.filesonic.com/file/266601....avi.part2.rar
http://www.filesonic.com/file/266601....avi.part3.rar
http://www.filesonic.com/file/266601....avi.part4.rar
Or
http://www.fileserve.com/file/34AAgk....avi.part1.rar
http://www.fileserve.com/file/xM7frP....avi.part2.rar
http://www.fileserve.com/file/jaPpVu....avi.part3.rar
http://www.fileserve.com/file/Sz6N52....avi.part4.rar
Please-Say-Thanks-To-Keep-The-Topic-Alive.