Captain America: The First Avenger 2011 DVDRIp Xvid-THC

iNFo:
http://www.imdb.com/title/tt0458339/
Format : AVI
Format/Info : Audio Video Interleave
Format profile : OpenDML
Format settings : rec
File size : 1.40 GiB
Duration : 2h 4mn
Overall bit rate : 1 610 Kbps
Writing application : AVI-Mux GUI 1.17.8, Aug 30 2008 12:36:58

Video
ID : 0
Format : MPEG-4 Visual
Format profile : Advanced [email protected]
Format settings, BVOP : 2
Format settings, QPel : Yes
Format settings, GMC : No warppoints
Format settings, Matrix : Default (H.263)
Codec ID : XVID
Codec ID/Hint : XviD
Duration : 2h 4mn
Bit rate : 1 157 Kbps
Width : 720 pixels
Height : 304 pixels
Display aspect ratio : 2.35:1
Frame rate : 23.976 fps
Color space : YUV
Chroma subsampling : 4:2:0
Bit depth : 8 bits
Scan type : Progressive
Compression mode : Lossy
Bits/(Pixel*Frame) : 0.220
Stream size : 1.00 GiB (72%)
Writing library : XviD 1.2.1 (UTC 2008-12-04)

Audio
ID : 1
Format : AC-3
Format/Info : Audio Coding 3
Mode extension : CM (complete main)
Codec ID : 2000
Duration : 2h 4mn
Bit rate mode : Constant
Bit rate : 448 Kbps
Channel(s) : 6 channels
Channel positions : Front: L C R, Side: L R, LFE
Sampling rate : 48.0 KHz
Bit depth : 16 bits
Compression mode : Lossy
Stream size : 398 MiB (28%)
Alignment : Aligned on interleaves
Interleave, duration : 64 ms (1.53 video frames)
Interleave, preload duration : 448 ms
Title : VTS_16_1 T80 3_2ch 448Kbps DELAY 0ms



1-LINK:
http://www.wupload.com/file/52294494...p_Xvid-THC.rar
Or
http://www.filesonic.com/file/266587...p_Xvid-THC.rar
Or
http://www.fileserve.com/file/76FBpQ...p_Xvid-THC.rar

450mb-iNTERCHANGEABLE:
http://www.wupload.com/file/52288601....avi.part1.rar
http://www.wupload.com/file/52288640....avi.part2.rar
http://www.wupload.com/file/52289407....avi.part3.rar
http://www.wupload.com/file/52287863....avi.part4.rar
Or
http://www.filesonic.com/file/266570....avi.part1.rar
http://www.filesonic.com/file/266569....avi.part2.rar
http://www.filesonic.com/file/266569....avi.part3.rar
http://www.filesonic.com/file/266563....avi.part4.rar
Or
http://www.fileserve.com/file/MXPsA7....avi.part1.rar
http://www.fileserve.com/file/JEXwrC....avi.part2.rar
http://www.fileserve.com/file/a3MdwS....avi.part3.rar
http://www.fileserve.com/file/kRUZ92....avi.part4.rar
Please-Say-Thanks-To-Keep-The-Topic-Alive.