Screwed.2011.BRRip.XviD-3LT0N



IMDB :
http://www.imdb.com/title/tt1727816/



Synopsis:
Plot: The film is a semi-biographical story based on the experiences of former prison guard Ronnie Thompson who spent seven years working in some of the UK’s most dangerous prisons. Based on Thompson’s book of the same name, the project stars James D’Arcy (Master & Commander), Noel Clarke (Kidulthood), Frank Harper (The Football Factory), Jamie Foreman (Layer Cake), Andrew Shim (This Is England) and Kate Magowan (Stardust). The story revolves around former soldier Sam Norwood who takes a job as a prison officer when he returns from Iraq and becomes exposed to the underworld of prison culture – including corrupt guards and drug trafficking.
Wupload :
http://www.wupload.com/file/52063302...-3LT0N.avi.rar

Fileserve :
http://www.fileserve.com/file/mQp9MZ...-3LT0N.avi.rar

Filejungle :
http://www.filejungle.com/f/J7X4wM/S...-3LT0N.avi.rar

Filesonic :
http://www.filesonic.com/file/266012...-3LT0N.avi.rar

PLEASE REPLY IF YOU LIKE MY POST!

SCREENSHOT :


NFO :
General
Complete name : Screwed.2011.BRRip.XviD-3LT0N.avi
Format : AVI
Format/Info : Audio Video Interleave
File size : 700 MiB
Duration : 1h 49mn
Overall bit rate : 891 Kbps

Video
ID : 0
Format : MPEG-4 Visual
Format profile : Advanced [email protected]
Format settings, BVOP : 2
Format settings, QPel : No
Format settings, GMC : No warppoints
Format settings, Matrix : Default (H.263)
Codec ID : XVID
Codec ID/Hint : XviD
Duration : 1h 49mn
Bit rate : 750 Kbps
Width : 640 pixels
Height : 272 pixels
Display aspect ratio : 2.35:1
Frame rate : 24.000 fps
Color space : YUV
Chroma subsampling : 4:2:0
Bit depth : 8 bits
Scan type : Progressive
Compression mode : Lossy
Bits/(Pixel*Frame) : 0.179
Stream size : 589 MiB (84%)
Writing library : XviD 1.2.1 (UTC 2008-12-04)

Audio
ID : 1
Format : MPEG Audio
Format version : Version 1
Format profile : Layer 3
Mode : Joint stereo
Mode extension : MS Stereo
Codec ID : 55
Codec ID/Hint : MP3
Duration : 1h 49mn
Bit rate mode : Variable
Bit rate : 129 Kbps
Nominal bit rate : 144 Kbps
Channel(s) : 2 channels
Sampling rate : 48.0 KHz
Compression mode : Lossy
Stream size : 101 MiB (14%)
Alignment : Aligned on interleaves
Interleave, duration : 24 ms (0.58 video frame)
Interleave, preload duration : 145 ms
Title : English - 3LT0N
Writing library : LAME3.98r
Encoding settings : -m j -V 4 -q 2 -lowpass 17.5 --abr 144