Cherry.2010.DVDRip.XviD-PRESTiGE



IMDB :
http://www.imdb.com/title/tt1315350/



Synopsis:
Plot: Ivy League Freshman, Aaron Milton (17) gets a different kind of education when he falls for Linda (34) a vivacious former wild-child who has returned to college to straighten out her life. The curriculum gets more challenging when Aaron meets Linda’s sarcastic 14 year-old daughter, Beth – who quickly develops a crush on him. The math doesn’t work in either direction but the dysfunctional triangle becomes a learning experience for all involved.
Fileserve :
http://www.fileserve.com/file/T24Tat...ESTiGE.avi.rar

Filejungle :
http://www.filejungle.com/f/9wsYNF/C...ESTiGE.avi.rar

Filesonic :
http://www.filesonic.com/file/265928...ESTiGE.avi.rar

PLEASE REPLY IF YOU LIKE MY POST!

SCREENSHOT :


NFO :
General
Complete name : Cherry.2010.Dvdrip-PRESTiGE.avi
Format : AVI
Format/Info : Audio Video Interleave
File size : 702 MiB
Duration : 1h 35mn
Overall bit rate : 1 027 Kbps
Writing application : VirtualDubMod 1.5.10.2 (build 2542/release)
Writing library : VirtualDubMod build 2542/release

Video
ID : 0
Format : MPEG-4 Visual
Format profile : Advanced [email protected]
Format settings, BVOP : 2
Format settings, QPel : No
Format settings, GMC : No warppoints
Format settings, Matrix : Default (H.263)
Muxing mode : Packed bitstream
Codec ID : XVID
Codec ID/Hint : XviD
Duration : 1h 35mn
Bit rate : 570 Kbps
Width : 720 pixels
Height : 400 pixels
Display aspect ratio : 16:9
Frame rate : 25.000 fps
Color space : YUV
Chroma subsampling : 4:2:0
Bit depth : 8 bits
Scan type : Progressive
Compression mode : Lossy
Bits/(Pixel*Frame) : 0.079
Stream size : 390 MiB (55%)
Writing library : XviD 64

Audio
ID : 1
Format : AC-3
Format/Info : Audio Coding 3
Mode extension : CM (complete main)
Codec ID : 2000
Duration : 1h 35mn
Bit rate mode : Constant
Bit rate : 448 Kbps
Channel(s) : 6 channels
Channel positions : Front: L C R, Side: L R, LFE
Sampling rate : 48.0 KHz
Bit depth : 16 bits
Compression mode : Lossy
Stream size : 306 MiB (44%)
Alignment : Split accross interleaves
Interleave, duration : 40 ms (1.00 video frame)
Interleave, preload duration : 500 ms