Trespass.2011.BRRip.XviD-3LT0N



IMDB :
http://www.imdb.com/title/tt1674784/



Synopsis:
Plot: As they’re held for ransom, a husband and wife’s predicament grows more dire amid the discovery of betrayal and deception.
Wupload :
http://www.wupload.com/file/51641858...-3LT0N.avi.rar

Fileserve :
http://www.fileserve.com/file/AtJerw...-3LT0N.avi.rar

Filejungle :
http://www.filejungle.com/f/FfV7wb/T...-3LT0N.avi.rar

Filesonic :
http://www.filesonic.com/file/265603...-3LT0N.avi.rar

PLEASE REPLY IF YOU LIKE MY POST!

SCREENSHOT :


NFO :
General
Complete name : Trespass.2011.BRRip.XviD-3LT0N.avi
Format : AVI
Format/Info : Audio Video Interleave
File size : 697 MiB
Duration : 1h 30mn
Overall bit rate : 1 075 Kbps

Video
ID : 0
Format : MPEG-4 Visual
Format profile : Advanced [email protected]
Format settings, BVOP : 2
Format settings, QPel : No
Format settings, GMC : No warppoints
Format settings, Matrix : Default (H.263)
Codec ID : XVID
Codec ID/Hint : XviD
Duration : 1h 30mn
Bit rate : 934 Kbps
Width : 640 pixels
Height : 272 pixels
Display aspect ratio : 2.35:1
Frame rate : 23.976 fps
Color space : YUV
Chroma subsampling : 4:2:0
Bit depth : 8 bits
Scan type : Progressive
Compression mode : Lossy
Bits/(Pixel*Frame) : 0.224
Stream size : 606 MiB (87%)
Writing library : XviD 1.2.1 (UTC 2008-12-04)

Audio
ID : 1
Format : MPEG Audio
Format version : Version 1
Format profile : Layer 3
Mode : Joint stereo
Mode extension : MS Stereo
Codec ID : 55
Codec ID/Hint : MP3
Duration : 1h 30mn
Bit rate mode : Variable
Bit rate : 128 Kbps
Nominal bit rate : 144 Kbps
Channel(s) : 2 channels
Sampling rate : 48.0 KHz
Compression mode : Lossy
Stream size : 83.2 MiB (12%)
Alignment : Aligned on interleaves
Interleave, duration : 24 ms (0.58 video frame)
Interleave, preload duration : 218 ms
Title : English - 3LT0N
Writing library : LAME3.98r
Encoding settings : -m j -V 4 -q 2 -lowpass 17.5 --abr 144