Territories.2010.DVDRip.XviD.AC3.CrEwSaDe



IMDB :
http://www.imdb.com/title/tt1683970/



Synopsis:
Five friends return home from a marriage in Canada to the United States. Not far from the border, two customs officers stop them to check their identity.
Wupload :
http://www.wupload.com/file/51226523....avi.part1.rar
http://www.wupload.com/file/51226522....avi.part2.rar
http://www.wupload.com/file/51226523....avi.part3.rar

Fileserve :
http://www.fileserve.com/file/Pwfv23....avi.part1.rar
http://www.fileserve.com/file/gASNs2....avi.part2.rar
http://www.fileserve.com/file/uTmCeX....avi.part3.rar

Filejungle :
http://www.filejungle.com/f/ga5SN3/T....avi.part1.rar
http://www.filejungle.com/f/aBBHtP/T....avi.part2.rar
http://www.filejungle.com/f/rPSPEV/T....avi.part3.rar

Filesonic :
http://www.filesonic.com/file/265393....avi.part1.rar
http://www.filesonic.com/file/265394....avi.part2.rar
http://www.filesonic.com/file/265394....avi.part3.rar

PLEASE REPLY IF YOU LIKE MY POST!

SCREENSHOT :


NFO :
General
Complete name : Territories.2010.DVDRip.XviD.AC3.CrEwSaDe.avi
Format : AVI
Format/Info : Audio Video Interleave
File size : 1.37 GiB
Duration : 1h 31mn
Overall bit rate : 2 141 Kbps

Video
ID : 0
Format : MPEG-4 Visual
Format profile : Advanced [email protected]
Format settings, BVOP : 2
Format settings, QPel : No
Format settings, GMC : No warppoints
Format settings, Matrix : Default (H.263)
Codec ID : XVID
Codec ID/Hint : XviD
Duration : 1h 31mn
Bit rate : 2 005 Kbps
Width : 720 pixels
Height : 384 pixels
Display aspect ratio : 1.875
Frame rate : 25.000 fps
Color space : YUV
Chroma subsampling : 4:2:0
Bit depth : 8 bits
Scan type : Progressive
Compression mode : Lossy
Bits/(Pixel*Frame) : 0.290
Stream size : 1.28 GiB (94%)
Writing library : XviD 1.2.1 (UTC 2008-12-04)

Audio
ID : 1
Format : AC-3
Format/Info : Audio Coding 3
Mode extension : CM (complete main)
Codec ID : 2000
Duration : 1h 31mn
Bit rate mode : Constant
Bit rate : 128 Kbps
Channel(s) : 2 channels
Channel positions : Front: L R
Sampling rate : 48.0 KHz
Bit depth : 16 bits
Compression mode : Lossy
Stream size : 83.7 MiB (6%)
Alignment : Aligned on interleaves
Interleave, duration : 64 ms (1.60 video frames)
Interleave, preload duration : 192 ms
Title : VTS_01_1 T80 2_0ch 224Kbps DELAY 0ms_new