The Hangover 2 2011 DVDRip XviD-MAXSPEED

iNFo:
http://www.imdb.com/title/tt1411697/
#
Format : AVI
#
Format/Info : Audio Video Interleave
#
Format profile : OpenDML
#
File size : 1.47 GiB
#
Duration : 1h 37mn
#
Overall bit rate : 2 151 Kbps
#
Writing application : VirtualDubMod 1.5.10.2 (build 2542/release)
#
Writing library : VirtualDubMod build 2542/release
#
Original source form : MAX TORRENTZ
#
Copyright : SIGISMUNT
#

#
Video
#
ID : 0
#
Format : MPEG-4 Visual
#
Format profile : [email protected]
#
Format settings, BVOP : Yes
#
Format settings, QPel : No
#
Format settings, GMC : No warppoints
#
Format settings, Matrix : Custom
#
Codec ID : XVID
#
Codec ID/Hint : XviD
#
Duration : 1h 37mn
#
Bit rate : 1 950 Kbps
#
Width : 672 pixels
#
Height : 288 pixels
#
Display aspect ratio : 2.35:1
#
Frame rate : 29.970 fps
#
Resolution : 24 bits
#
Colorimetry : 4:2:0
#
Scan type : Progressive
#
Bits/(Pixel*Frame) : 0.336
#
Stream size : 1.33 GiB (91%)
#
Writing library : XviD 1.2.1 (UTC 2008-12-04)
#

#
Audio
#
ID : 1
#
Format : MPEG Audio
#
Format version : Version 1
#
Format profile : Layer 3
#
Codec ID : 55
#
Codec ID/Hint : MP3
#
Duration : 1h 37mn
#
Bit rate mode : Constant
#
Bit rate : 192 Kbps
#
Channel(s) : 2 channels
#
Sampling rate : 48.0 KHz
#
Resolution : 16 bits
#
Stream size : 134 MiB (9%)
#
Alignment : Aligned on interleaves
#
Interleave, duration : 24 ms (0.72 video frame)
#
Interleave, preload duration : 192 ms


1-LINK:
http://www.wupload.com/file/50898280...D-MAXSPEED.rar
Or
http://www.filesonic.com/file/265280...D-MAXSPEED.rar
Or
http://www.fileserve.com/file/WjAEAm...D-MAXSPEED.rar

450mb-iNTERCHANGEABLE:
http://www.filesonic.com/file/265283....avi.part1.rar
http://www.filesonic.com/file/265283....avi.part2.rar
http://www.filesonic.com/file/265283....avi.part3.rar
http://www.filesonic.com/file/265283....avi.part4.rar
Or
http://www.wupload.com/file/50905381....avi.part1.rar
http://www.wupload.com/file/50905380....avi.part2.rar
http://www.wupload.com/file/50906000....avi.part3.rar
http://www.wupload.com/file/50905364....avi.part4.rar
Or
http://www.fileserve.com/file/wMQAvt....avi.part1.rar
http://www.fileserve.com/file/D7eryt....avi.part2.rar
http://www.fileserve.com/file/qyXMke....avi.part3.rar
http://www.fileserve.com/file/RxE4vK....avi.part4.rar
Please-Say-Thanks-To-Keep-The-Topic-Alive.