Inside Out 2011 BDRip XVID AC3 HQ Hive-CM8

iNFo:
http://www.imdb.com/title/tt1640486/
General
Complete name : Inside.Out.2011.BDRip.XVID.AC3.HQ.Hive-CM8.avi
Format : AVI
Format/Info : Audio Video Interleave
File size : 1.43 GiB
Duration : 1h 33mn
Overall bit rate : 2 192 Kbps
Writing application : Nandub v1.0rc2
Writing library : Nandub build 1853/release

Video
ID : 0
Format : MPEG-4 Visual
Format profile : Advanced [email protected]
Format settings, BVOP : 1
Format settings, QPel : Yes
Format settings, GMC : No warppoints
Format settings, Matrix : Default (H.263)
Muxing mode : Packed bitstream
Codec ID : XVID
Codec ID/Hint : XviD
Duration : 1h 33mn
Bit rate : 1 799 Kbps
Width : 720 pixels
Height : 384 pixels
Display aspect ratio : 1.850
Frame rate : 23.976 fps
Color space : YUV
Chroma subsampling : 4:2:0
Bit depth : 8 bits
Scan type : Progressive
Compression mode : Lossy
Bits/(Pixel*Frame) : 0.271
Stream size : 1.17 GiB (82%)
Writing library : XviD 1.2.1 (UTC 2008-12-04)

Audio
ID : 1
Format : AC-3
Format/Info : Audio Coding 3
Mode extension : CM (complete main)
Codec ID : 2000
Duration : 1h 33mn
Bit rate mode : Constant
Bit rate : 384 Kbps
Channel(s) : 6 channels
Channel positions : Front: L C R, Side: L R, LFE
Sampling rate : 48.0 KHz
Bit depth : 16 bits
Compression mode : Lossy
Stream size : 256 MiB (18%)
Alignment : Split accross interleaves
Interleave, duration : 42 ms (1.00 video frame)
Interleave, preload duration : 500 ms


1-LINK:
http://www.wupload.com/file/47323181...Q.Hive-CM8.avi
Or
http://www.filesonic.com/file/263957...Q.Hive-CM8.rar
Or
http://www.fileserve.com/file/BjfQrh...Q.Hive-CM8.rar

450mb-iNTERCHANGEABLE:
http://www.wupload.com/file/47678328....avi.part1.rar
http://www.wupload.com/file/47679791....avi.part2.rar
http://www.wupload.com/file/47679802....avi.part3.rar
http://www.wupload.com/file/47679792....avi.part4.rar
Or
http://www.filesonic.com/file/263922....avi.part1.rar
http://www.filesonic.com/file/263925....avi.part2.rar
http://www.filesonic.com/file/263925....avi.part3.rar
http://www.filesonic.com/file/263922....avi.part4.rar
Or
http://www.fileserve.com/file/jzTawH....avi.part1.rar
http://www.fileserve.com/file/7f57Dz....avi.part2.rar
http://www.fileserve.com/file/kbT3Ex....avi.part3.rar
http://www.fileserve.com/file/2qQUDy....avi.part4.rar
Please-Say-Thanks-To-Keep-The-Topic-Alive.