7Lives 2011 BDRip XVID AC3 HQ Hive-CM8

iNFo:
http://www.imdb.com/title/tt1558246/
General
Complete name : 7Lives.2011.BDRip.XVID.AC3.HQ.Hive-CM8.avi
Format : AVI
Format/Info : Audio Video Interleave
File size : 1.42 GiB
Duration : 1h 39mn
Overall bit rate : 2 042 Kbps
Writing application : Nandub v1.0rc2
Writing library : Nandub build 1853/release

Video
ID : 0
Format : MPEG-4 Visual
Format profile : Advanced [email protected]
Format settings, BVOP : 1
Format settings, QPel : Yes
Format settings, GMC : No warppoints
Format settings, Matrix : Default (H.263)
Muxing mode : Packed bitstream
Codec ID : XVID
Codec ID/Hint : XviD
Duration : 1h 39mn
Bit rate : 1 649 Kbps
Width : 720 pixels
Height : 400 pixels
Display aspect ratio : 16:9
Frame rate : 24.000 fps
Color space : YUV
Chroma subsampling : 4:2:0
Bit depth : 8 bits
Scan type : Progressive
Compression mode : Lossy
Bits/(Pixel*Frame) : 0.239
Stream size : 1.15 GiB (81%)
Writing library : XviD 1.2.1 (UTC 2008-12-04)

Audio
ID : 1
Format : AC-3
Format/Info : Audio Coding 3
Mode extension : CM (complete main)
Codec ID : 2000
Duration : 1h 39mn
Bit rate mode : Constant
Bit rate : 384 Kbps
Channel(s) : 6 channels
Channel positions : Front: L C R, Side: L R, LFE
Sampling rate : 48.0 KHz
Bit depth : 16 bits
Compression mode : Lossy
Stream size : 273 MiB (19%)
Alignment : Split accross interleaves
Interleave, duration : 42 ms (1.00 video frame)
Interleave, preload duration : 500 ms


1-LINK:
http://www.wupload.com/file/47323039...Q.Hive-CM8.avi
Or
http://www.filesonic.com/file/263960...Q.Hive-CM8.rar
Or
http://www.fileserve.com/file/nfdmTc...Q.Hive-CM8.rar

450mb-iNTERCHANGEABLE:
http://www.wupload.com/file/47678249....avi.part1.rar
http://www.wupload.com/file/47678246....avi.part2.rar
http://www.wupload.com/file/47678241....avi.part3.rar
http://www.wupload.com/file/47675424....avi.part4.rar
Or
http://www.filesonic.com/file/263921....avi.part1.rar
http://www.filesonic.com/file/263922....avi.part2.rar
http://www.filesonic.com/file/263921....avi.part3.rar
http://www.filesonic.com/file/263921....avi.part4.rar
Or
http://www.fileserve.com/file/XtQwEh....avi.part1.rar
http://www.fileserve.com/file/U3S5HS....avi.part2.rar
http://www.fileserve.com/file/SfQpP7....avi.part3.rar
http://www.fileserve.com/file/MyF62Q....avi.part4.rar
Please-Say-Thanks-To-Keep-The-Topic-Alive.