The.Howling.Reborn.2011.BDRip.XVID.AC3.HQ.Hive-CM8



IMDB :
http://www.imdb.com/title/tt1554092/



Synopsis:
Plot: On the eve of his high school graduation, unremarkable Will Kidman finally bonds with the girl he has long yearned for, reclusive Eliana Wynter. But he also discovers a dark secret from his past… that he is about to become a werewolf. Now, in an effort to fight destiny and save their love as well as their lives, they must battle not only Will\’s growing blood lust but an army of fearsome beasts bent on killing them… and then, us all.
Wupload :
http://www.wupload.com/file/46549899....avi.part1.rar
http://www.wupload.com/file/46549879....avi.part2.rar
http://www.wupload.com/file/46549886....avi.part3.rar

Fileserve :
http://www.fileserve.com/file/uBe96S....avi.part1.rar
http://www.fileserve.com/file/P5chTx....avi.part2.rar
http://www.fileserve.com/file/eVvmcS....avi.part3.rar

Filejungle :
http://www.filejungle.com/f/uJjkDK/T....avi.part1.rar
http://www.filejungle.com/f/9xJDAb/T....avi.part2.rar
http://www.filejungle.com/f/sJB3HP/T....avi.part3.rar

Filesonic :
http://www.filesonic.com/file/263778....avi.part1.rar
http://www.filesonic.com/file/263778....avi.part2.rar
http://www.filesonic.com/file/263778....avi.part3.rar

PLEASE REPLY IF YOU LIKE MY POST!

SCREENSHOT :


NFO :
General
Complete name : The.Howling.Reborn.2011.BDRip.XVID.AC3.HQ.Hive-CM8.avi
Format : AVI
Format/Info : Audio Video Interleave
File size : 1.41 GiB
Duration : 1h 32mn
Overall bit rate : 2 193 Kbps
Writing application : Nandub v1.0rc2
Writing library : Nandub build 1853/release

Video
ID : 0
Format : MPEG-4 Visual
Format profile : Advanced [email protected]
Format settings, BVOP : 1
Format settings, QPel : Yes
Format settings, GMC : No warppoints
Format settings, Matrix : Default (H.263)
Muxing mode : Packed bitstream
Codec ID : XVID
Codec ID/Hint : XviD
Duration : 1h 32mn
Bit rate : 1 800 Kbps
Width : 720 pixels
Height : 400 pixels
Display aspect ratio : 16:9
Frame rate : 23.976 fps
Color space : YUV
Chroma subsampling : 4:2:0
Bit depth : 8 bits
Scan type : Progressive
Compression mode : Lossy
Bits/(Pixel*Frame) : 0.261
Stream size : 1.16 GiB (82%)
Writing library : XviD 1.2.1 (UTC 2008-12-04)

Audio
ID : 1
Format : AC-3
Format/Info : Audio Coding 3
Mode extension : CM (complete main)
Codec ID : 2000
Duration : 1h 32mn
Bit rate mode : Constant
Bit rate : 384 Kbps
Channel(s) : 6 channels
Channel positions : Front: L C R, Side: L R, LFE
Sampling rate : 48.0 KHz
Bit depth : 16 bits
Compression mode : Lossy
Stream size : 253 MiB (18%)
Alignment : Split accross interleaves
Interleave, duration : 42 ms (1.00 video frame)
Interleave, preload duration : 500 ms