Inside.Out.2011.BDRip.XVID.AC3.HQ.Hive-CM8



IMDB :
http://www.imdb.com/title/tt1640486/



Synopsis:
For the last thirteen years AJ (Triple H) has been behind bars, convicted of manslaughter for killing a man who intended to kill his best friend, Jack (Michael Rapaport). Now released, AJ wants nothing more than to start a small business and live a crime-free life. Unfortunately, within hours of leaving prison, his oldest and best friend, Jack (Michael Rapaport) involves AJ in an accidental shooting in which a man is killed, forcing Jack to skip town.
Wupload :
http://www.wupload.com/file/46549896....avi.part1.rar
http://www.wupload.com/file/46548353....avi.part2.rar
http://www.wupload.com/file/46549883....avi.part3.rar

Fileserve :
http://www.fileserve.com/file/ZPuePd....avi.part1.rar
http://www.fileserve.com/file/5rM6Wu....avi.part2.rar
http://www.fileserve.com/file/jc4bhn....avi.part3.rar

Filejungle :
http://www.filejungle.com/f/QAbdqe/I....avi.part1.rar
http://www.filejungle.com/f/CQucX2/I....avi.part2.rar
http://www.filejungle.com/f/aG4Cjm/I....avi.part3.rar

Filesonic :
http://www.filesonic.com/file/263777....avi.part1.rar
http://www.filesonic.com/file/263778....avi.part2.rar
http://www.filesonic.com/file/263778....avi.part3.rar

PLEASE REPLY IF YOU LIKE MY POST!

SCREENSHOT :


NFO :
General
Complete name : Inside.Out.2011.BDRip.XVID.AC3.HQ.Hive-CM8.avi
Format : AVI
Format/Info : Audio Video Interleave
File size : 1.43 GiB
Duration : 1h 33mn
Overall bit rate : 2 192 Kbps
Writing application : Nandub v1.0rc2
Writing library : Nandub build 1853/release

Video
ID : 0
Format : MPEG-4 Visual
Format profile : Advanced [email protected]
Format settings, BVOP : 1
Format settings, QPel : Yes
Format settings, GMC : No warppoints
Format settings, Matrix : Default (H.263)
Muxing mode : Packed bitstream
Codec ID : XVID
Codec ID/Hint : XviD
Duration : 1h 33mn
Bit rate : 1 799 Kbps
Width : 720 pixels
Height : 384 pixels
Display aspect ratio : 1.850
Frame rate : 23.976 fps
Color space : YUV
Chroma subsampling : 4:2:0
Bit depth : 8 bits
Scan type : Progressive
Compression mode : Lossy
Bits/(Pixel*Frame) : 0.271
Stream size : 1.17 GiB (82%)
Writing library : XviD 1.2.1 (UTC 2008-12-04)

Audio
ID : 1
Format : AC-3
Format/Info : Audio Coding 3
Mode extension : CM (complete main)
Codec ID : 2000
Duration : 1h 33mn
Bit rate mode : Constant
Bit rate : 384 Kbps
Channel(s) : 6 channels
Channel positions : Front: L C R, Side: L R, LFE
Sampling rate : 48.0 KHz
Bit depth : 16 bits
Compression mode : Lossy
Stream size : 256 MiB (18%)
Alignment : Split accross interleaves
Interleave, duration : 42 ms (1.00 video frame)
Interleave, preload duration : 500 ms