7Lives.2011.BDRip.XVID.AC3.HQ.Hive-CM8



IMDB :
http://www.imdb.com/title/tt1558246/



Synopsis:
Plot: Tom, a married man with kids, is struggling at work when a client tries to seduce him with promises of a ‘more exciting life’.
Wupload :
http://www.wupload.com/file/46549895....avi.part1.rar
http://www.wupload.com/file/46549892....avi.part2.rar
http://www.wupload.com/file/46549904....avi.part3.rar

Fileserve :
http://www.fileserve.com/file/VXtsmH....avi.part1.rar
http://www.fileserve.com/file/8DaA8j....avi.part2.rar
http://www.fileserve.com/file/6U7jud....avi.part3.rar

Filejungle :
http://www.filejungle.com/f/2pdmsK/7....avi.part1.rar
http://www.filejungle.com/f/kjyGyv/7....avi.part2.rar
http://www.filejungle.com/f/WCQazK/7....avi.part3.rar

Filesonic :
http://www.filesonic.com/file/263777....avi.part1.rar
http://www.filesonic.com/file/263777....avi.part2.rar
http://www.filesonic.com/file/263777....avi.part3.rar

PLEASE REPLY IF YOU LIKE MY POST!

SCREENSHOT :


NFO :
General
Complete name : 7Lives.2011.BDRip.XVID.AC3.HQ.Hive-CM8.avi
Format : AVI
Format/Info : Audio Video Interleave
File size : 1.42 GiB
Duration : 1h 39mn
Overall bit rate : 2 042 Kbps
Writing application : Nandub v1.0rc2
Writing library : Nandub build 1853/release

Video
ID : 0
Format : MPEG-4 Visual
Format profile : Advanced [email protected]
Format settings, BVOP : 1
Format settings, QPel : Yes
Format settings, GMC : No warppoints
Format settings, Matrix : Default (H.263)
Muxing mode : Packed bitstream
Codec ID : XVID
Codec ID/Hint : XviD
Duration : 1h 39mn
Bit rate : 1 649 Kbps
Width : 720 pixels
Height : 400 pixels
Display aspect ratio : 16:9
Frame rate : 24.000 fps
Color space : YUV
Chroma subsampling : 4:2:0
Bit depth : 8 bits
Scan type : Progressive
Compression mode : Lossy
Bits/(Pixel*Frame) : 0.239
Stream size : 1.15 GiB (81%)
Writing library : XviD 1.2.1 (UTC 2008-12-04)

Audio
ID : 1
Format : AC-3
Format/Info : Audio Coding 3
Mode extension : CM (complete main)
Codec ID : 2000
Duration : 1h 39mn
Bit rate mode : Constant
Bit rate : 384 Kbps
Channel(s) : 6 channels
Channel positions : Front: L C R, Side: L R, LFE
Sampling rate : 48.0 KHz
Bit depth : 16 bits
Compression mode : Lossy
Stream size : 273 MiB (19%)
Alignment : Split accross interleaves
Interleave, duration : 42 ms (1.00 video frame)
Interleave, preload duration : 500 ms