The Woman 2011 DVDSCR XviD-SceneLovers

iNFo:
http://www.imdb.com/title/tt1714208/
General
Complete name : The.Woman.2011.DVDSCR.XviD-SceneLovers.avi
Format : AVI
Format/Info : Audio Video Interleave
File size : 800 MiB
Duration : 1h 43mn
Overall bit rate : 1 084 Kbps
Writing application : VirtualDubMod 1.5.10.2 (build 2542/release)
Writing library : VirtualDubMod build 2542/release

Video
ID : 0
Format : MPEG-4 Visual
Format profile : Advanced [email protected]
Format settings, BVOP : 1
Format settings, QPel : No
Format settings, GMC : No warppoints
Format settings, Matrix : Default (H.263)
Muxing mode : Packed bitstream
Codec ID : XVID
Codec ID/Hint : XviD
Duration : 1h 43mn
Bit rate : 947 Kbps
Width : 704 pixels
Height : 384 pixels
Display aspect ratio : 16:9
Frame rate : 25.000 fps
Color space : YUV
Chroma subsampling : 4:2:0
Bit depth : 8 bits
Scan type : Progressive
Compression mode : Lossy
Bits/(Pixel*Frame) : 0.140
Stream size : 698 MiB (87%)
Writing library : XviD 62

Audio
ID : 1
Format : MPEG Audio
Format version : Version 1
Format profile : Layer 3
Mode : Joint stereo
Mode extension : MS Stereo
Codec ID : 55
Codec ID/Hint : MP3
Duration : 1h 43mn
Bit rate mode : Constant
Bit rate : 128 Kbps
Channel(s) : 2 channels
Sampling rate : 48.0 KHz
Compression mode : Lossy
Stream size : 94.4 MiB (12%)
Alignment : Aligned on interleaves
Interleave, duration : 40 ms (1.00 video frame)
Interleave, preload duration : 504 ms
Writing library : LAME3.98r
Encoding settings : -m j -V 4 -q 2 -lowpass 17 -b 128


1-LINK:
http://www.wupload.com/file/45440876...ceneLovers.avi
Or
http://www.filesonic.com/file/263121...Lovers.avi.rar
Or
http://www.fileserve.com/file/kB2sFY...Lovers.avi.rar
Please-Say-Thanks-To-Keep-The-Topic-Alive.