Beginners.2010.LIMITED.720p.BluRay.x264-MHD



IMDB :
http://www.imdb.com/title/tt1532503/



Synopsis:
Plot: It’s 2003. Thirty-eight year old graphic artist Oliver Fields has just lost his father Hal Fields to cancer, after Oliver’s mother Georgia Fields passed away five years earlier. Oliver is naturally a sullen man due to his growing up relationship with his parents (his mother who had a unique view on life) and watching his parents’ cordial but somewhat distant relationship with each other, but is more so now because of his personal family loss. Oliver embarks on a relationship with Anna, a French actress. Oliver is hoping that his re-energized relationship with Hal following Georgia’s death and Hal’s new outlook on life during that time will show Oliver how to act in a loving relationship. After Georgia’s death, Hal came out of the closet and began to live with a joie de vivre that did not exist before, which included an open relationship with a much younger man named Andy.
Wupload :
http://www.wupload.com/file/44668308....mkv.part1.rar
http://www.wupload.com/file/44671550....mkv.part2.rar
http://www.wupload.com/file/44674926....mkv.part3.rar
http://www.wupload.com/file/44678766....mkv.part4.rar
http://www.wupload.com/file/44681652....mkv.part5.rar
http://www.wupload.com/file/44685427....mkv.part6.rar
http://www.wupload.com/file/44688644....mkv.part7.rar

Fileserve :
http://www.fileserve.com/file/nuZnyY....mkv.part1.rar
http://www.fileserve.com/file/hA6XdG....mkv.part2.rar
http://www.fileserve.com/file/7BsTh5....mkv.part3.rar
http://www.fileserve.com/file/yXBpcy....mkv.part4.rar
http://www.fileserve.com/file/ShtSpU....mkv.part5.rar
http://www.fileserve.com/file/ZtrU5g....mkv.part6.rar
http://www.fileserve.com/file/S5RfCv....mkv.part7.rar

Filejungle :
http://www.filejungle.com/f/a5hVRY/B....mkv.part1.rar
http://www.filejungle.com/f/HVCZWu/B....mkv.part2.rar
http://www.filejungle.com/f/dvw3M5/B....mkv.part3.rar
http://www.filejungle.com/f/4HQV5H/B....mkv.part4.rar
http://www.filejungle.com/f/hEbksX/B....mkv.part5.rar
http://www.filejungle.com/f/NwyT5t/B....mkv.part6.rar
http://www.filejungle.com/f/gJQH3P/B....mkv.part7.rar

Filesonic :
http://www.filesonic.com/file/262199....mkv.part1.rar
http://www.filesonic.com/file/262199....mkv.part2.rar
http://www.filesonic.com/file/262201....mkv.part3.rar
http://www.filesonic.com/file/262201....mkv.part4.rar
http://www.filesonic.com/file/262202....mkv.part5.rar
http://www.filesonic.com/file/262202....mkv.part6.rar
http://www.filesonic.com/file/262203....mkv.part7.rar

PLEASE REPLY IF YOU LIKE MY POST!

SCREENSHOT :


NFO :
General
Complete name : Beginners.2010.LIMITED.720p.BluRay.x264-MHD.mkv
Format : Matroska
File size : 4.36 GiB
Duration : 1h 44mn
Overall bit rate : 5 979 Kbps
Writing application : x264.exe
Writing library : mkv2rls v1.3 (date: 2010 aug 28)

Video
ID : 1
Format : AVC
Format/Info : Advanced Video Codec
Format profile : [email protected]
Format settings, CABAC : Yes
Format settings, ReFrames : 5 frames
Codec ID : V_MPEG4/ISO/AVC
Duration : 1h 44mn
Bit rate : 4 471 Kbps
Width : 1 280 pixels
Height : 688 pixels
Display aspect ratio : 1.860
Frame rate : 23.976 fps
Color space : YUV
Chroma subsampling : 4:2:0
Bit depth : 8 bits
Scan type : Progressive
Bits/(Pixel*Frame) : 0.212
Stream size : 3.17 GiB (73%)
Writing library : x264 core 116 r2057 0ba8a9c
Encoding settings : cabac=1 / ref=5 / deblock=1:0:0 / analyse=0x3:0x113 / me=umh / subme=7 / psy=1 / psy_rd=1.00:0.15 / mixed_ref=1 / me_range=16 / chroma_me=1 / trellis=1 / 8x8dct=1 / cqm=0 / deadzone=21,11 / fast_pskip=0 / chroma_qp_offset=-3 / threads=12 / sliced_threads=0 / nr=0 / decimate=1 / interlaced=0 / bluray_compat=0 / constrained_intra=0 / bframes=3 / b_pyramid=2 / b_adapt=1 / b_bias=0 / direct=1 / weightb=1 / open_gop=0 / weightp=2 / keyint=250 / keyint_min=23 / scenecut=40 / intra_refresh=0 / rc_lookahead=40 / rc=2pass / mbtree=1 / bitrate=4471 / ratetol=1.0 / qcomp=0.60 / qpmin=0 / qpmax=69 / qpstep=4 / cplxblur=20.0 / qblur=0.5 / ip_ratio=1.40 / aq=1:1.00
Language : English

Audio
ID : 2
Format : DTS
Format/Info : Digital Theater Systems
Codec ID : A_DTS
Duration : 1h 44mn
Bit rate mode : Constant
Bit rate : 1 510 Kbps
Channel(s) : 6 channels
Channel positions : Front: L C R, Side: L R, LFE
Sampling rate : 48.0 KHz
Bit depth : 24 bits
Compression mode : Lossy
Stream size : 1.10 GiB (25%)
Title : English DTS 1509kbps
Language : English

Text
ID : 3
Format : UTF-8
Codec ID : S_TEXT/UTF8
Codec ID/Info : UTF-8 Plain Text
Title : English
Language : English

Menu
00:00:00.000 : en:00:00:00.000
00:11:50.460 : en:00:11:50.460
00:23:31.410 : en:00:23:31.410
00:33:15.952 : en:00:33:15.952
00:42:40.933 : en:00:42:40.933
00:51:14.947 : en:00:51:14.947
01:03:05.699 : en:01:03:05.699
01:14:59.745 : en:01:14:59.745
01:25:31.043 : en:01:25:31.043
01:34:09.602 : en:01:34:09.602