Peter Portrait Of A Killer 2011 DVDRip Xvid AC3-UnKnOwN



IMDB :
http://www.imdb.com/title/tt1674780/



Synopsis:
Plot: A Study for a Portrait of a Serial Killer, is a feature length horror containing genuine archive that takes the audience on a unique journey into the mind of Peter Sutcliffe The Yorkshire Ripper. The 90min film starts from his formative years in Yorkshire, the largest police manhunt in history to his on-going psychological treatment in Broadmoor Hospital PETER avoids the established genre clichés, of blood and gore and instead asks us to think about issues of retribution, punishment, compassion and guilt.
Wupload :
http://www.wupload.com/file/44232495....avi.part1.rar
http://www.wupload.com/file/44234483....avi.part2.rar
http://www.wupload.com/file/44235176....avi.part3.rar

Fileserve :
http://www.fileserve.com/file/bSdRdj....avi.part1.rar
http://www.fileserve.com/file/dGFgkb....avi.part2.rar
http://www.fileserve.com/file/sQ6aye....avi.part3.rar

Filejungle :
http://www.filejungle.com/f/VV5RbZ/p....avi.part1.rar
http://www.filejungle.com/f/Tw3R8H/p....avi.part2.rar
http://www.filejungle.com/f/hpHT4D/p....avi.part3.rar

Filesonic :
http://www.filesonic.com/file/261500....avi.part1.rar
http://www.filesonic.com/file/261500....avi.part2.rar
http://www.filesonic.com/file/261500....avi.part3.rar

PLEASE REPLY IF YOU LIKE MY POST!

SCREENSHOT :


NFO :
General
Complete name : ppoaskUnKnOwN.avi
Format : AVI
Format/Info : Audio Video Interleave
File size : 1.25 GiB
Duration : 1h 24mn
Overall bit rate : 2 114 Kbps
Writing application : VirtualDubMod 1.5.10.2 (build 2540/release)
Writing library : VirtualDub build 32817/release

Video
ID : 0
Format : MPEG-4 Visual
Format profile : Advanced [email protected]
Format settings, BVOP : 1
Format settings, QPel : No
Format settings, GMC : No warppoints
Format settings, Matrix : Custom
Codec ID : XVID
Codec ID/Hint : XviD
Duration : 1h 24mn
Bit rate : 1 656 Kbps
Width : 680 pixels
Height : 364 pixels
Display aspect ratio : 1.868
Frame rate : 25.000 fps
Color space : YUV
Chroma subsampling : 4:2:0
Bit depth : 8 bits
Scan type : Progressive
Compression mode : Lossy
Bits/(Pixel*Frame) : 0.268
Stream size : 1 005 MiB (78%)
Writing library : XviD 1.2.1 (UTC 2008-12-04)

Audio
ID : 1
Format : AC-3
Format/Info : Audio Coding 3
Mode extension : CM (complete main)
Codec ID : 2000
Duration : 1h 24mn
Bit rate mode : Constant
Bit rate : 448 Kbps
Channel(s) : 6 channels
Channel positions : Front: L C R, Side: L R, LFE
Sampling rate : 48.0 KHz
Bit depth : 16 bits
Compression mode : Lossy
Stream size : 272 MiB (21%)
Alignment : Split accross interleaves
Interleave, duration : 40 ms (1.00 video frame)
Interleave, preload duration : 500 ms