Mardi Gras Spring Break 2011 R5 DVDRip XVID AC3 HQ Hive-CM8

iNFo:
http://www.imdb.com/title/tt1083462/
General
Complete name : Mardi.Gras.Spring.Break.2011.R5.DVDRip.XVID.AC3.HQ.Hive-CM8.avi
Format : AVI
Format/Info : Audio Video Interleave
File size : 1.28 GiB
Duration : 1h 24mn
Overall bit rate : 2 154 Kbps
Writing application : Nandub v1.0rc2
Writing library : Nandub build 1853/release

Video
ID : 0
Format : MPEG-4 Visual
Format profile : Advanced [email protected]
Format settings, BVOP : 2
Format settings, QPel : Yes
Format settings, GMC : No warppoints
Format settings, Matrix : Default (H.263)
Muxing mode : Packed bitstream
Codec ID : XVID
Codec ID/Hint : XviD
Duration : 1h 24mn
Bit rate : 1 696 Kbps
Width : 720 pixels
Height : 384 pixels
Display aspect ratio : 1.875
Frame rate : 25.000 fps
Color space : YUV
Chroma subsampling : 4:2:0
Bit depth : 8 bits
Scan type : Progressive
Compression mode : Lossy
Bits/(Pixel*Frame) : 0.245
Stream size : 1.01 GiB (79%)
Writing library : XviD 1.2.1 (UTC 2008-12-04)

Audio
ID : 1
Format : AC-3
Format/Info : Audio Coding 3
Mode extension : CM (complete main)
Codec ID : 2000
Duration : 1h 24mn
Bit rate mode : Constant
Bit rate : 448 Kbps
Channel(s) : 6 channels
Channel positions : Front: L C R, Side: L R, LFE
Sampling rate : 48.0 KHz
Bit depth : 16 bits
Compression mode : Lossy
Stream size : 272 MiB (21%)
Alignment : Split accross interleaves
Interleave, duration : 40 ms (1.00 video frame)
Interleave, preload duration : 500 ms



SAmPLe:
http://www.wupload.com/file/43472875...sample.avi.rar
Or
http://www.filesonic.com/file/260929...sample.avi.rar
Or
http://www.fileserve.com/file/vNSPYH...sample.avi.rar

1-LINK:
http://www.wupload.com/file/43471814...VID.AC3.HQ.rar
Or
http://www.filesonic.com/file/260932...VID.AC3.HQ.rar
Or
http://www.fileserve.com/file/GeUKPq...VID.AC3.HQ.rar

450mb-iNTERCHANGEABLE:
http://www.wupload.com/file/43473807....avi.part1.rar
http://www.wupload.com/file/43473498....avi.part2.rar
http://www.wupload.com/file/43473499....avi.part3.rar
Or
http://www.filesonic.com/file/260930....avi.part1.rar
http://www.filesonic.com/file/260930....avi.part2.rar
http://www.filesonic.com/file/260930....avi.part3.rar
Or
http://www.fileserve.com/file/tsaVxQ....avi.part1.rar
http://www.fileserve.com/file/pNTkqB....avi.part2.rar
http://www.fileserve.com/file/f7BpeA....avi.part3.rar
Please-Say-Thanks-To-Keep-The-Topic-Alive.