Crazy.Stupid.Love.2011.BRRip.720p.x264.DXVA-MXMG



IMDB :
http://www.imdb.com/title/tt1570728/



Synopsis:
Cal (Steve Carell) and Emily (Julianne Moore) have the perfect life together living the American dream… until Emily asks for a divorce. Now Cal, Mr Husband, has to navigate the single scene with a little help from his professional bachelor friend Jacob Palmer (Ryan Gosling). Make that a lot of help.
Wupload :
http://www.wupload.com/file/43112115....mkv.part1.rar
http://www.wupload.com/file/43112115....mkv.part2.rar
http://www.wupload.com/file/43112156....mkv.part3.rar
http://www.wupload.com/file/43112156....mkv.part4.rar
http://www.wupload.com/file/43112156....mkv.part5.rar

Fileserve :
http://www.fileserve.com/file/ZsHAk8....mkv.part1.rar
http://www.fileserve.com/file/t479Qp....mkv.part2.rar
http://www.fileserve.com/file/Nc8ea4....mkv.part3.rar
http://www.fileserve.com/file/6SBukV....mkv.part4.rar
http://www.fileserve.com/file/vxPbTG....mkv.part5.rar

Filejungle :
http://www.filejungle.com/f/FthfEd/C....mkv.part1.rar
http://www.filejungle.com/f/xJHrhH/C....mkv.part2.rar
http://www.filejungle.com/f/Z8vQYW/C....mkv.part3.rar
http://www.filejungle.com/f/aeKRDR/C....mkv.part4.rar
http://www.filejungle.com/f/GYBKHb/C....mkv.part5.rar

Filesonic :
http://www.filesonic.com/file/258856....mkv.part1.rar
http://www.filesonic.com/file/258857....mkv.part2.rar
http://www.filesonic.com/file/258857....mkv.part3.rar
http://www.filesonic.com/file/258857....mkv.part4.rar
http://www.filesonic.com/file/258857....mkv.part5.rar

PLEASE REPLY IF YOU LIKE MY POST!

SCREENSHOT :


NFO :
General
Unique ID : 217512189023497453638739118061762525214 (0xA3A352E5465E90F4A884A023D3C6381E)
Complete name : Crazy.Stupid.Love.2011.BRRip.720p.x264.DXVA-MXMG.mkv
Format : Matroska
File size : 2.85 GiB
Duration : 1h 58mn
Overall bit rate : 3 453 Kbps
Encoded date : UTC 2011-10-16 07:37:53
Writing application : mkvmerge v5.0.1 ('Es ist Sommer') built on Oct 9 2011 11:55:43
Writing library : libebml v1.2.2 + libmatroska v1.3.0

Video
ID : 1
Format : AVC
Format/Info : Advanced Video Codec
Format profile : [email protected]
Format settings, CABAC : Yes
Format settings, ReFrames : 4 frames
Codec ID : V_MPEG4/ISO/AVC
Duration : 1h 58mn
Bit rate : 3 003 Kbps
Width : 1 280 pixels
Height : 544 pixels
Display aspect ratio : 2.35:1
Frame rate : 23.976 fps
Color space : YUV
Chroma subsampling : 4:2:0
Bit depth : 8 bits
Scan type : Progressive
Bits/(Pixel*Frame) : 0.180
Stream size : 2.42 GiB (85%)
Writing library : x264 core 118 r2085 8a62835
Encoding settings : cabac=1 / ref=3 / deblock=1:-1:-1 / analyse=0x3:0x113 / me=hex / subme=7 / psy=1 / psy_rd=1.00:0.80 / mixed_ref=1 / me_range=16 / chroma_me=1 / trellis=1 / 8x8dct=1 / cqm=0 / deadzone=21,11 / fast_pskip=1 / chroma_qp_offset=-4 / threads=6 / sliced_threads=0 / nr=0 / decimate=0 / interlaced=0 / bluray_compat=0 / constrained_intra=0 / bframes=3 / b_pyramid=2 / b_adapt=1 / b_bias=0 / direct=1 / weightb=1 / open_gop=0 / weightp=2 / keyint=250 / keyint_min=23 / scenecut=40 / intra_refresh=0 / rc_lookahead=40 / rc=2pass / mbtree=1 / bitrate=3003 / ratetol=1.0 / qcomp=0.60 / qpmin=10 / qpmax=51 / qpstep=4 / cplxblur=20.0 / qblur=0.5 / ip_ratio=1.40 / aq=1:1.00

Audio
ID : 2
Format : AC-3
Format/Info : Audio Coding 3
Mode extension : CM (complete main)
Codec ID : A_AC3
Duration : 1h 58mn
Bit rate mode : Constant
Bit rate : 448 Kbps
Channel(s) : 6 channels
Channel positions : Front: L C R, Side: L R, LFE
Sampling rate : 48.0 KHz
Bit depth : 16 bits
Compression mode : Lossy
Stream size : 378 MiB (13%)
Language : English

Text
ID : 3
Format : UTF-8
Codec ID : S_TEXT/UTF8
Codec ID/Info : UTF-8 Plain Text
Language : English