Indian Summer 1993 DVDRip XviD-REQU3ST



IMDB :
http://www.imdb.com/title/tt0107212/



Synopsis:
A group of childhood friends, now in their thirties, reunite at Camp Tamakwa. Only a few of the original campers show up, but they still have a good time reminiscing. The people share experiences and grow while at the camp. They are dismayed to discover that the camp’s owner, Unca Lou, is going to close the camp down.
Wupload :
http://www.wupload.com/file/43037942....avi.part1.rar
http://www.wupload.com/file/43037940....avi.part2.rar
http://www.wupload.com/file/43037943....avi.part3.rar

Fileserve :
http://www.fileserve.com/file/57Z6KV....avi.part1.rar
http://www.fileserve.com/file/rgQrrJ....avi.part2.rar
http://www.fileserve.com/file/RWECAS....avi.part3.rar

Filejungle :
http://www.filejungle.com/f/amFS6P/I....avi.part1.rar
http://www.filejungle.com/f/9sEUPG/I....avi.part2.rar
http://www.filejungle.com/f/HE3Rau/I....avi.part3.rar

Filesonic :
http://www.filesonic.com/file/258771....avi.part1.rar
http://www.filesonic.com/file/258771....avi.part2.rar
http://www.filesonic.com/file/258772....avi.part3.rar

PLEASE REPLY IF YOU LIKE MY POST!

SCREENSHOT :


NFO :
General
Complete name : Indian.Summer.1993.DVDRip.XviD-REQU3ST.avi
Format : AVI
Format/Info : Audio Video Interleave
File size : 1.37 GiB
Duration : 1h 37mn
Overall bit rate : 2 000 Kbps
Writing application : VirtualDubMod 1.5.4.1 (build 2178/release)
Writing library : VirtualDubMod build 2178/release

Video
ID : 0
Format : MPEG-4 Visual
Format profile : Advanced [email protected]
Format settings, BVOP : 1
Format settings, QPel : No
Format settings, GMC : No warppoints
Format settings, Matrix : Custom
Codec ID : XVID
Codec ID/Hint : XviD
Duration : 1h 37mn
Bit rate : 1 801 Kbps
Width : 704 pixels
Height : 304 pixels
Display aspect ratio : 2.35:1
Frame rate : 23.976 fps
Color space : YUV
Chroma subsampling : 4:2:0
Bit depth : 8 bits
Scan type : Progressive
Compression mode : Lossy
Bits/(Pixel*Frame) : 0.351
Stream size : 1.23 GiB (90%)
Writing library : XviD 1.2.1 (UTC 2008-12-04)

Audio
ID : 1
Format : AC-3
Format/Info : Audio Coding 3
Format profile : Dolby Digital
Mode extension : CM (complete main)
Codec ID : 2000
Duration : 1h 37mn
Bit rate mode : Constant
Bit rate : 192 Kbps
Channel(s) : 2 channels
Channel positions : Front: L R
Sampling rate : 48.0 KHz
Bit depth : 16 bits
Compression mode : Lossy
Stream size : 135 MiB (10%)
Alignment : Split accross interleaves
Interleave, duration : 96 ms (2.30 video frames)
Interleave, preload duration : 96 ms
Language : English