Crazy.Stupid.Love.2011.720p.BRRip.XviD.AC3-ViSiON



IMDB :
http://www.imdb.com/title/tt1570728/



Synopsis:
Cal (Steve Carell) and Emily (Julianne Moore) have the perfect life together living the American dream… until Emily asks for a divorce. Now Cal, Mr Husband, has to navigate the single scene with a little help from his professional bachelor friend Jacob Palmer (Ryan Gosling). Make that a lot of help.
Wupload :
http://www.wupload.com/file/42911643....avi.part1.rar
http://www.wupload.com/file/42911643....avi.part2.rar
http://www.wupload.com/file/42911642....avi.part3.rar
http://www.wupload.com/file/42911643....avi.part4.rar

Fileserve :
http://www.fileserve.com/file/pbheYV....avi.part1.rar
http://www.fileserve.com/file/NqJgfS....avi.part2.rar
http://www.fileserve.com/file/umdJKH....avi.part3.rar
http://www.fileserve.com/file/rkTPb4....avi.part4.rar

Filejungle :
http://www.filejungle.com/f/TQRS5s/C....avi.part1.rar
http://www.filejungle.com/f/ZMcHxC/C....avi.part2.rar
http://www.filejungle.com/f/Z6RMB9/C....avi.part3.rar
http://www.filejungle.com/f/EfWQxh/C....avi.part4.rar

Filesonic :
http://www.filesonic.com/file/258725....avi.part1.rar
http://www.filesonic.com/file/258725....avi.part2.rar
http://www.filesonic.com/file/258725....avi.part3.rar
http://www.filesonic.com/file/258725....avi.part4.rar

PLEASE REPLY IF YOU LIKE MY POST!

SCREENSHOT :


NFO :
General
Complete name : Crazy.Stupid.Love.2011.720p.BRRip.XviD.AC3-ViSiON.avi
Format : AVI
Format/Info : Audio Video Interleave
Format profile : OpenDML
File size : 2.90 GiB
Duration : 1h 58mn
Overall bit rate : 3 516 Kbps
Writing application : VirtualDubMod 1.5.10.2 (build 2542/release)
Writing library : VirtualDubMod build 2542/release

Video
ID : 0
Format : MPEG-4 Visual
Format profile : Advanced [email protected]
Format settings, BVOP : 1
Format settings, QPel : No
Format settings, GMC : No warppoints
Format settings, Matrix : Custom
Muxing mode : Packed bitstream
Codec ID : XVID
Codec ID/Hint : XviD
Duration : 1h 58mn
Bit rate : 3 058 Kbps
Width : 1 280 pixels
Height : 536 pixels
Display aspect ratio : 2.40:1
Frame rate : 23.976 fps
Color space : YUV
Chroma subsampling : 4:2:0
Bit depth : 8 bits
Scan type : Progressive
Compression mode : Lossy
Bits/(Pixel*Frame) : 0.186
Stream size : 2.52 GiB (87%)
Writing library : XviD 1.2.1 (UTC 2008-12-04)

Audio
ID : 1
Format : AC-3
Format/Info : Audio Coding 3
Mode extension : CM (complete main)
Codec ID : 2000
Duration : 1h 58mn
Bit rate mode : Constant
Bit rate : 448 Kbps
Channel(s) : 2 channels
Channel positions : Front: L R
Sampling rate : 48.0 KHz
Bit depth : 16 bits
Compression mode : Lossy
Stream size : 378 MiB (13%)
Alignment : Split accross interleaves
Interleave, duration : 42 ms (1.00 video frame)
Interleave, preload duration : 500 ms