Terri.2011.DVDRip.XviD.AC3.CrEwSaDe



IMDB :
http://www.imdb.com/title/tt1687281/



Synopsis:
Plot: Centers on a large 15-year-old boy in a small town as he struggles to adjust to his difficult life.
Wupload :
http://www.wupload.com/file/42769186....avi.part1.rar
http://www.wupload.com/file/42750114....avi.part2.rar
http://www.wupload.com/file/42759822....avi.part3.rar

Fileserve :
http://www.fileserve.com/file/YxXDnE....avi.part1.rar
http://www.fileserve.com/file/qpVND8....avi.part2.rar
http://www.fileserve.com/file/39xGwf....avi.part3.rar

Filejungle :
http://www.filejungle.com/f/QV6tZ6/T....avi.part1.rar
http://www.filejungle.com/f/WSpVfn/T....avi.part2.rar
http://www.filejungle.com/f/b5Xqja/T....avi.part3.rar

Filesonic :
http://www.filesonic.com/file/258609....avi.part1.rar
http://www.filesonic.com/file/258610....avi.part2.rar
http://www.filesonic.com/file/258610....avi.part3.rar

PLEASE REPLY IF YOU LIKE MY POST!

SCREENSHOT :


NFO :
General
Complete name : Father.of.Invention.2010.BDRip.XVID.AC3.HQ.Hive-CM8.avi
Format : AVI
Format/Info : Audio Video Interleave
File size : 1.47 GiB
Duration : 1h 33mn
Overall bit rate : 2 257 Kbps
Writing application : Nandub v1.0rc2
Writing library : Nandub build 1853/release

Video
ID : 0
Format : MPEG-4 Visual
Format profile : Advanced [email protected]
Format settings, BVOP : 1
Format settings, QPel : Yes
Format settings, GMC : No warppoints
Format settings, Matrix : Default (H.263)
Muxing mode : Packed bitstream
Codec ID : XVID
Codec ID/Hint : XviD
Duration : 1h 33mn
Bit rate : 1 800 Kbps
Width : 720 pixels
Height : 304 pixels
Display aspect ratio : 2.35:1
Frame rate : 23.976 fps
Color space : YUV
Chroma subsampling : 4:2:0
Bit depth : 8 bits
Scan type : Progressive
Compression mode : Lossy
Bits/(Pixel*Frame) : 0.343
Stream size : 1.17 GiB (80%)
Writing library : XviD 1.2.1 (UTC 2008-12-04)

Audio
ID : 1
Format : AC-3
Format/Info : Audio Coding 3
Mode extension : CM (complete main)
Codec ID : 2000
Duration : 1h 33mn
Bit rate mode : Constant
Bit rate : 448 Kbps
Channel(s) : 6 channels
Channel positions : Front: L C R, Side: L R, LFE
Sampling rate : 48.0 KHz
Bit depth : 16 bits
Compression mode : Lossy
Stream size : 299 MiB (20%)
Alignment : Split accross interleaves
Interleave, duration : 42 ms (1.00 video frame)
Interleave, preload duration : 500 ms