Terri 2011 DVDRip XviD AC3-CrEwSaDe

iNFo:
http://www.imdb.com/title/tt1687281/
General
Complete name : E:\Terri.2011.DVDRip.XviD.AC3.CrEwSaDe\Terri.2011.DVDRip.XviD.AC3.CrEwSaDe.avi
Format : AVI
Format/Info : Audio Video Interleave
File size : 1.37 GiB
Duration : 1h 45mn
Overall bit rate : 1 859 Kbps

Video
ID : 0
Format : MPEG-4 Visual
Format profile : Advanced [email protected]
Format settings, BVOP : 2
Format settings, QPel : No
Format settings, GMC : No warppoints
Format settings, Matrix : Default (H.263)
Codec ID : XVID
Codec ID/Hint : XviD
Duration : 1h 45mn
Bit rate : 1 724 Kbps
Width : 720 pixels
Height : 384 pixels
Display aspect ratio : 1.875
Frame rate : 23.976 fps
Color space : YUV
Chroma subsampling : 4:2:0
Bit depth : 8 bits
Scan type : Progressive
Compression mode : Lossy
Bits/(Pixel*Frame) : 0.260
Stream size : 1.27 GiB (93%)
Writing library : XviD 1.2.1 (UTC 2008-12-04)

Audio
ID : 1
Format : AC-3
Format/Info : Audio Coding 3
Mode extension : CM (complete main)
Codec ID : 2000
Duration : 1h 45mn
Bit rate mode : Constant
Bit rate : 128 Kbps
Channel(s) : 6 channels
Channel positions : Front: L C R, Side: L R, LFE
Sampling rate : 48.0 KHz
Bit depth : 16 bits
Compression mode : Lossy
Stream size : 96.3 MiB (7%)
Alignment : Aligned on interleaves
Interleave, duration : 64 ms (1.53 video frames)
Interleave, preload duration : 192 ms
Title : VTS_01_1 T80 3_2ch 448Kbps DELAY 0ms_new


1-LINK:
http://www.wupload.com/file/42680818...3.CrEwSaDe.avi
Or
http://www.filesonic.com/file/258617...3.CrEwSaDe.rar
Or
http://www.fileserve.com/file/aCdMmF...3.CrEwSaDe.rar

450mb-iNTERCHANGEABLE:
http://www.filesonic.com/file/258617....avi.part1.rar
http://www.filesonic.com/file/258617....avi.part2.rar
http://www.filesonic.com/file/258617....avi.part3.rar
http://www.filesonic.com/file/258617....avi.part4.rar
Or
http://www.wupload.com/file/42854567....avi.part1.rar
http://www.wupload.com/file/42854566....avi.part2.rar
http://www.wupload.com/file/42854568....avi.part3.rar
http://www.wupload.com/file/42854337....avi.part4.rar
Or
http://www.fileserve.com/file/2vEZ7c....avi.part1.rar
http://www.fileserve.com/file/RZB5ge....avi.part2.rar
http://www.fileserve.com/file/MFMCFx....avi.part3.rar
http://www.fileserve.com/file/2x7ghQ....avi.part4.rar
Please-Say-Thanks-To-Keep-The-Topic-Alive.