Midnight.in.Paris.2011.BDRip.XVID.AC3.HQ.Hive-CM8



IMDB :
http://www.imdb.com/title/tt1605783/



Synopsis:
A romantic comedy about a family traveling to the French capital for business. The party includes a young engaged couple forced to confront the illusion that a life different from their own is better
Wupload :
http://www.wupload.com/file/42771118....avi.part1.rar
http://www.wupload.com/file/42769194....avi.part2.rar
http://www.wupload.com/file/42769180....avi.part3.rar

Fileserve :
http://www.fileserve.com/file/4zVxsJ....avi.part1.rar
http://www.fileserve.com/file/asWh3g....avi.part2.rar
http://www.fileserve.com/file/BrUrbZ....avi.part3.rar

Filejungle :
http://www.filejungle.com/f/De5h6U/M....avi.part1.rar
http://www.filejungle.com/f/PjGJDd/M....avi.part2.rar
http://www.filejungle.com/f/SSrZq9/M....avi.part3.rar

Filesonic :
http://www.filesonic.com/file/258609....avi.part1.rar
http://www.filesonic.com/file/258609....avi.part2.rar
http://www.filesonic.com/file/258609....avi.part3.rar

PLEASE REPLY IF YOU LIKE MY POST!

SCREENSHOT :


NFO :
General
Complete name : Midnight.in.Paris.2011.BDRip.XVID.AC3.HQ.Hive-CM8.avi
Format : AVI
Format/Info : Audio Video Interleave
File size : 1.44 GiB
Duration : 1h 33mn
Overall bit rate : 2 189 Kbps
Writing application : Nandub v1.0rc2
Writing library : Nandub build 1853/release

Video
ID : 0
Format : MPEG-4 Visual
Format profile : Advanced [email protected]
Format settings, BVOP : 1
Format settings, QPel : Yes
Format settings, GMC : No warppoints
Format settings, Matrix : Default (H.263)
Muxing mode : Packed bitstream
Codec ID : XVID
Codec ID/Hint : XviD
Duration : 1h 33mn
Bit rate : 1 796 Kbps
Width : 720 pixels
Height : 384 pixels
Display aspect ratio : 1.850
Frame rate : 23.976 fps
Color space : YUV
Chroma subsampling : 4:2:0
Bit depth : 8 bits
Scan type : Progressive
Compression mode : Lossy
Bits/(Pixel*Frame) : 0.271
Stream size : 1.18 GiB (82%)
Writing library : XviD 1.2.1 (UTC 2008-12-04)

Audio
ID : 1
Format : AC-3
Format/Info : Audio Coding 3
Mode extension : CM (complete main)
Codec ID : 2000
Duration : 1h 33mn
Bit rate mode : Constant
Bit rate : 384 Kbps
Channel(s) : 2 channels
Channel positions : Front: L R
Sampling rate : 48.0 KHz
Bit depth : 16 bits
Compression mode : Lossy
Stream size : 258 MiB (18%)
Alignment : Split accross interleaves
Interleave, duration : 42 ms (1.00 video frame)
Interleave, preload duration : 500 ms