A Better Life 2011 BDRip XVID AC3 HQ Hive-CM8



IMDB :
http://www.imdb.com/title/tt1554091/



Synopsis:
Plot: A mysterious drifter (Josh Hartnett) and an ardent young Japanese warrior Yoshi (Gackt) both arrive in a town that has been terrorized by outrageous and virulent criminals. Each is obsessed with his separate mission, and guided by the wisdom of The Bartender (Woody Harrelson) at the Horseless Horseman Saloon, the two eventually join forces to bring down the corrupt and contemptuous reign of Nicola (Ron Perlman), the awesomely evil “woodcutter” and his lady Alexandra (Demi Moore), a femme fatale with a secret past. This classic tale is re-vitalized and re-imagined in an entirely fresh visual context, set in a unique world that mixes skewed reality with shadow-play fantasy, a place where even the landscape can betray you.
Wupload :
http://www.wupload.com/file/42647399....avi.part1.rar
http://www.wupload.com/file/42647399....avi.part2.rar
http://www.wupload.com/file/42647399....avi.part3.rar

Fileserve :
http://www.fileserve.com/file/XKxwQn....avi.part1.rar
http://www.fileserve.com/file/sz3TnM....avi.part2.rar
http://www.fileserve.com/file/6FqWpZ....avi.part3.rar

Filejungle :
http://www.filejungle.com/f/J2dRaN/A....avi.part1.rar
http://www.filejungle.com/f/dtNpJb/A....avi.part2.rar
http://www.filejungle.com/f/5jqfH4/A....avi.part3.rar

Filesonic :
http://www.filesonic.com/file/258585....avi.part1.rar
http://www.filesonic.com/file/258585....avi.part2.rar
http://www.filesonic.com/file/258585....avi.part3.rar
Or :
http://www.filesonic.com/file/258585....avi.part1.rar
http://www.filesonic.com/file/258585....avi.part2.rar
http://www.filesonic.com/file/258585....avi.part3.rar

PLEASE REPLY IF YOU LIKE MY POST!

SCREENSHOT :


NFO :
General
Complete name : A.Better.Life.2011.BDRip.XVID.AC3.HQ.Hive-CM8.avi
Format : AVI
Format/Info : Audio Video Interleave
File size : 1.40 GiB
Duration : 1h 37mn
Overall bit rate : 2 060 Kbps
Writing application : Nandub v1.0rc2
Writing library : Nandub build 1853/release

Video
ID : 0
Format : MPEG-4 Visual
Format profile : Advanced [email protected]
Format settings, BVOP : 1
Format settings, QPel : Yes
Format settings, GMC : No warppoints
Format settings, Matrix : Default (H.263)
Muxing mode : Packed bitstream
Codec ID : XVID
Codec ID/Hint : XviD
Duration : 1h 37mn
Bit rate : 1 602 Kbps
Width : 720 pixels
Height : 400 pixels
Display aspect ratio : 16:9
Frame rate : 23.976 fps
Color space : YUV
Chroma subsampling : 4:2:0
Bit depth : 8 bits
Scan type : Progressive
Compression mode : Lossy
Bits/(Pixel*Frame) : 0.232
Stream size : 1.09 GiB (78%)
Writing library : XviD 1.2.1 (UTC 2008-12-04)

Audio
ID : 1
Format : AC-3
Format/Info : Audio Coding 3
Mode extension : CM (complete main)
Codec ID : 2000
Duration : 1h 37mn
Bit rate mode : Constant
Bit rate : 448 Kbps
Channel(s) : 6 channels
Channel positions : Front: L C R, Side: L R, LFE
Sampling rate : 48.0 KHz
Bit depth : 16 bits
Compression mode : Lossy
Delay relative to video : 24ms
Stream size : 312 MiB (22%)
Alignment : Split accross interleaves
Interleave, duration : 42 ms (1.00 video frame)
Interleave, preload duration : 500 ms