Mardi Gras Spring Break DVDRip XviD-iGNiTiON



IMDB :
http://www.imdb.com/title/tt1083462/



Synopsis:
Three college seniors with no romantic prospects decide to try their luck where female nudity is rewarded with beads, and take a road trip to Mardis Gras. But after their vacation results in a starring role in a sex show, a feces bomb exploding in a hotel lobby, a breaking and entering charge from Carmen Electra, the boys can’t help wondering if getting lucky in the Big Easy might be the most difficult thing in the world.
Wupload :
http://www.wupload.com/file/42623089...nition.avi.rar

Fileserve :
http://www.fileserve.com/file/4MvjdG...nition.avi.rar

Filejungle :
http://www.filejungle.com/f/xw8VZ8/m...nition.avi.rar

Filesonic :
http://www.filesonic.com/file/258582...nition.avi.rar

PLEASE REPLY IF YOU LIKE MY POST!

SCREENSHOT :


NFO :
General
Complete name : mardi.gras.spring.break.dvdrip.xvid-ignition.avi
Format : AVI
Format/Info : Audio Video Interleave
File size : 701 MiB
Duration : 1h 24mn
Overall bit rate : 1 154 Kbps

Video
ID : 0
Format : MPEG-4 Visual
Format profile : Advanced [email protected]
Format settings, BVOP : 3
Format settings, QPel : No
Format settings, GMC : No warppoints
Format settings, Matrix : Default (H.263)
Codec ID : XVID
Codec ID/Hint : XviD
Duration : 1h 24mn
Bit rate : 1 013 Kbps
Width : 624 pixels
Height : 336 pixels
Display aspect ratio : 1.857
Frame rate : 25.000 fps
Color space : YUV
Chroma subsampling : 4:2:0
Bit depth : 8 bits
Scan type : Progressive
Compression mode : Lossy
Bits/(Pixel*Frame) : 0.193
Stream size : 616 MiB (88%)
Writing library : XviD 1.2.1 (UTC 2008-12-04)

Audio
ID : 1
Format : MPEG Audio
Format version : Version 1
Format profile : Layer 3
Mode : Joint stereo
Mode extension : MS Stereo
Codec ID : 55
Codec ID/Hint : MP3
Duration : 1h 24mn
Bit rate mode : Variable
Bit rate : 130 Kbps
Channel(s) : 2 channels
Sampling rate : 48.0 KHz
Compression mode : Lossy
Stream size : 77.8 MiB (11%)
Alignment : Aligned on interleaves
Interleave, duration : 24 ms (0.60 video frame)
Interleave, preload duration : 191 ms
Title : English
Writing library : LAME3.92
Encoding settings : -m j -V 0 -q 2 -lowpass 15.5 --abr 130