Dolphin Tale 2011 CAM READNFO XViD - REBORN

iNFo:
http://www.imdb.com/title/tt1564349/
General
Complete name : Dolphin.Tale.2011.CAM.READNFO.XViD-REBORN.avi
Format : AVI
Format/Info : Audio Video Interleave
File size : 1.38 GiB
Duration : 1h 45mn
Overall bit rate : 1 869 Kbps
Writing application : VirtualDubMod 1.5.10.3 | www.virtualdub-fr.org || (build 2550/release)
Writing library : VirtualDub build 32842/release

Video
ID : 0
Format : MPEG-4 Visual
Format profile : Advanced [email protected]
Format settings, BVOP : 2
Format settings, QPel : No
Format settings, GMC : No warppoints
Format settings, Matrix : Default (MPEG)
Muxing mode : Packed bitstream
Codec ID : XVID
Codec ID/Hint : XviD
Duration : 1h 45mn
Bit rate : 1 731 Kbps
Width : 720 pixels
Height : 304 pixels
Display aspect ratio : 2.35:1
Frame rate : 25.000 fps
Color space : YUV
Chroma subsampling : 4:2:0
Bit depth : 8 bits
Scan type : Progressive
Compression mode : Lossy
Bits/(Pixel*Frame) : 0.316
Stream size : 1.27 GiB (93%)
Writing library : XviD 64

Audio
ID : 1
Format : MPEG Audio
Format version : Version 1
Format profile : Layer 3
Mode : Joint stereo
Codec ID : 55
Codec ID/Hint : MP3
Duration : 1h 45mn
Bit rate mode : Constant
Bit rate : 128 Kbps
Channel(s) : 2 channels
Sampling rate : 48.0 KHz
Compression mode : Lossy
Stream size : 96.5 MiB (7%)
Alignment : Split accross interleaves
Interleave, duration : 40 ms (1.00 video frame)
Interleave, preload duration : 500 ms


1-LINK:
http://www.wupload.com/file/42412207...ViD-REBORN.avi
Or
http://www.filesonic.com/file/258395...ViD-REBORN.rar
Or
http://www.fileserve.com/file/qNYb3E...ViD-REBORN.rar

450mb-iNTERCHANGEABLE:
http://www.wupload.com/file/42468717....avi.part1.rar
http://www.wupload.com/file/42469459....avi.part2.rar
http://www.wupload.com/file/42469459....avi.part3.rar
http://www.wupload.com/file/42467474....avi.part4.rar
Or
http://www.filesonic.com/file/258394....avi.part1.rar
http://www.filesonic.com/file/258394....avi.part2.rar
http://www.filesonic.com/file/258394....avi.part3.rar
http://www.filesonic.com/file/258394....avi.part4.rar
Or
http://www.fileserve.com/file/tcgvXZ....avi.part1.rar
http://www.fileserve.com/file/BMV39a....avi.part2.rar
http://www.fileserve.com/file/qgd7Vp....avi.part3.rar
http://www.fileserve.com/file/SvZtEB....avi.part4.rar
Please-Say-Thanks-To-Keep-The-Topic-Alive.