The.Tree.Of.Life.2011.DVDRip.XviD-ViP3R



IMDB :
http://www.imdb.com/title/tt0478304/



Synopsis:
Plot: The story centers around a family with three boys in the 1950s. The eldest son witnesses the loss of innocence.
Wupload :
http://www.wupload.com/file/42298499...-ViP3R.avi.rar

Fileserve :
http://www.fileserve.com/file/8HCTgS...-ViP3R.avi.rar

Filejungle :
http://www.filejungle.com/f/XZG8w2/T...-ViP3R.avi.rar

Filesonic :
http://www.filesonic.com/file/257744...-ViP3R.avi.rar

PLEASE REPLY IF YOU LIKE MY POST!

SCREENSHOT :


NFO :
General
Complete name : The.Tree.Of.Life.2011.DVDRip.XviD-ViP3R.avi
Format : AVI
Format/Info : Audio Video Interleave
File size : 799 MiB
Duration : 2h 18mn
Overall bit rate : 804 Kbps
Writing application : VirtualDubMod 1.5.4.1 (build 2178/release)
Writing library : VirtualDubMod build 2178/release

Video
ID : 0
Format : MPEG-4 Visual
Format profile : Advanced [email protected]
Format settings, BVOP : 1
Format settings, QPel : No
Format settings, GMC : No warppoints
Format settings, Matrix : Custom
Codec ID : XVID
Codec ID/Hint : XviD
Duration : 2h 18mn
Bit rate : 677 Kbps
Width : 640 pixels
Height : 352 pixels
Display aspect ratio : 16:9
Frame rate : 23.976 fps
Color space : YUV
Chroma subsampling : 4:2:0
Bit depth : 8 bits
Scan type : Progressive
Compression mode : Lossy
Bits/(Pixel*Frame) : 0.125
Stream size : 672 MiB (84%)
Writing library : XviD 1.2.1 (UTC 2008-12-04)

Audio
ID : 1
Format : MPEG Audio
Format version : Version 1
Format profile : Layer 3
Mode : Joint stereo
Mode extension : MS Stereo
Codec ID : 55
Codec ID/Hint : MP3
Duration : 2h 18mn
Bit rate mode : Variable
Bit rate : 115 Kbps
Nominal bit rate : 128 Kbps
Channel(s) : 2 channels
Sampling rate : 48.0 KHz
Compression mode : Lossy
Stream size : 114 MiB (14%)
Alignment : Aligned on interleaves
Interleave, duration : 24 ms (0.58 video frame)
Interleave, preload duration : 160 ms
Writing library : LAME3.98r
Encoding settings : -m j -V 4 -q 2 -lowpass 17 --abr 128
Language : English