DC.Showcase.Presents.Catwoman.2011.DVDRiP.XviD-T00NG0D



IMDB :
http://www.imdb.com/title/tt1986806/



Synopsis:
Catwoman attempts to track down a mysterious cargo shipment that is linked to a Gotham City crime boss called Rough Cut.
Wupload :
http://www.wupload.com/file/41358499...00NG0D.avi.rar

Fileserve :
http://www.fileserve.com/file/4mdEr2...00NG0D.avi.rar

Filejungle :
http://www.filejungle.com/f/W4mpdH/D...00NG0D.avi.rar

Filesonic :
http://www.filesonic.com/file/256888...00NG0D.avi.rar

PLEASE REPLY IF YOU LIKE MY POST!

SCREENSHOT :


NFO :
General
Complete name : DC.Showcase.Presents.Catwoman.2011.DVDRiP.XviD-T00NG0D.avi
Format : AVI
Format/Info : Audio Video Interleave
File size : 171 MiB
Duration : 14mn 48s
Overall bit rate : 1 619 Kbps
Writing application : VirtualDubMod 1.5.10.2 (build 2540/release)
Writing library : VirtualDubMod build 2540/release

Video
ID : 0
Format : MPEG-4 Visual
Format profile : Advanced [email protected]
Format settings, BVOP : 2
Format settings, QPel : No
Format settings, GMC : No warppoints
Format settings, Matrix : Default (H.263)
Muxing mode : Packed bitstream
Codec ID : XVID
Codec ID/Hint : XviD
Duration : 14mn 48s
Bit rate : 1 481 Kbps
Width : 704 pixels
Height : 396 pixels
Display aspect ratio : 16:9
Frame rate : 23.976 fps
Color space : YUV
Chroma subsampling : 4:2:0
Bit depth : 8 bits
Scan type : Progressive
Compression mode : Lossy
Bits/(Pixel*Frame) : 0.222
Stream size : 157 MiB (92%)
Writing library : XviD 1.1.2 (UTC 2006-11-01)

Audio
ID : 1
Format : MPEG Audio
Format version : Version 1
Format profile : Layer 3
Mode : Joint stereo
Mode extension : MS Stereo
Codec ID : 55
Codec ID/Hint : MP3
Duration : 14mn 48s
Bit rate mode : Constant
Bit rate : 128 Kbps
Channel(s) : 2 channels
Sampling rate : 48.0 KHz
Compression mode : Lossy
Stream size : 13.6 MiB (8%)
Alignment : Split accross interleaves
Interleave, duration : 42 ms (1.00 video frame)
Interleave, preload duration : 500 ms
Writing library : LAME3.97