Captain America The First Avenger 2011 DVDRip XviD-MAXSPEED

iNFo:
http://www.imdb.com/title/tt0458339/
Captain America The First Avenger (2011) DVDRip XviD-MAXSPEED
Format : AVI
Format/Info : Audio Video Interleave
Format profile : OpenDML
File size : 1.14 GiB
Duration : 2h 4mn
Overall bit rate : 1 312 Kbps
Writing application : VirtualDubMod 1.5.10.2 (build 2542/release)
Writing library : VirtualDubMod build 2542/release
Original source form : MAX TORRENTZ
Copyright : SIGISMUNT

Video
ID : 0
Format : MPEG-4 Visual
Format profile : [email protected]
Format settings, BVOP : Yes
Format settings, QPel : No
Format settings, GMC : No warppoints
Format settings, Matrix : Default (H.263)
Muxing mode : Packed bitstream
Codec ID : XVID
Codec ID/Hint : XviD
Duration : 2h 4mn
Bit rate : 1 116 Kbps
Width : 640 pixels
Height : 272 pixels
Display aspect ratio : 2.35:1
Frame rate : 23.976 fps
Resolution : 24 bits
Colorimetry : 4:2:0
Scan type : Progressive
Bits/(Pixel*Frame) : 0.267
Stream size : 991 MiB (85%)
Writing library : XviD 1.2.1 (UTC 2008-12-04)

Audio
ID : 1
Format : MPEG Audio
Format version : Version 1
Format profile : Layer 3
Codec ID : 55
Codec ID/Hint : MP3
Duration : 2h 4mn
Bit rate mode : Constant
Bit rate : 192 Kbps
Channel(s) : 2 channels
Sampling rate : 48.0 KHz
Resolution : 16 bits
Stream size : 171 MiB (15%)
Alignment : Aligned on interleaves
Interleave, duration : 652 ms (15.64 video frames)
Interleave, preload duration : 216 ms
Writing library : LAME3.96.1

Source: DVD (perfect a/v/sync quality,sample included)
This torrent is not seedbox supported,please seed it to the MAX


1-LINK:
http://www.wupload.com/file/40980313...D-MAXSPEED.avi
Or
http://www.filesonic.com/file/256360...D-MAXSPEED.rar
Or
http://www.fileserve.com/file/JPW8j8...D-MAXSPEED.rar

450mb-iNTERCHANGEABLE:
http://www.filesonic.com/file/256360....avi.part1.rar
http://www.filesonic.com/file/256360....avi.part2.rar
http://www.filesonic.com/file/256360....avi.part3.rar
Or
http://www.wupload.com/file/40984197....avi.part1.rar
http://www.wupload.com/file/40984197....avi.part2.rar
http://www.wupload.com/file/40983195....avi.part3.rar
Or
http://www.fileserve.com/file/ZQGbw8....avi.part1.rar
http://www.fileserve.com/file/ZpkTjM....avi.part2.rar
http://www.fileserve.com/file/wAKRf9....avi.part3.rar
Please-Say-Thanks-To-Keep-The-Topic-Alive.