Captain.America.The.First.Avenger.2011.BRRip.XviD-playXD



IMDB :
http://www.imdb.com/title/tt0458339/



Synopsis:
After being deemed unfit for military service, Steve Rogers volunteers for a top secret research project that turns him into Captain America, a superhero dedicated to defending America’s ideals.
Wupload :
http://www.wupload.com/file/40728500....avi.part1.rar
http://www.wupload.com/file/40729719....avi.part2.rar
http://www.wupload.com/file/40728500....avi.part3.rar

Fileserve :
http://www.fileserve.com/file/JcZhXf....avi.part1.rar
http://www.fileserve.com/file/pEqMXD....avi.part2.rar
http://www.fileserve.com/file/7cdFs8....avi.part3.rar

Filejungle :
http://www.filejungle.com/f/dTErQu/C....avi.part1.rar
http://www.filejungle.com/f/fvTFJm/C....avi.part2.rar
http://www.filejungle.com/f/vJrKGr/C....avi.part3.rar

Filesonic :
http://www.filesonic.com/file/255875....avi.part1.rar
http://www.filesonic.com/file/255876....avi.part2.rar
http://www.filesonic.com/file/255876....avi.part3.rar

PLEASE REPLY IF YOU LIKE MY POST!

SCREENSHOT :


NFO :
General
Complete name : Captain.America.The.First.Avenger.2011.BRRip.XviD-playXD.avi
Format : AVI
Format/Info : Audio Video Interleave
File size : 1.37 GiB
Duration : 2h 4mn
Overall bit rate : 1 582 Kbps
Writing application : VirtualDubMod 1.5.10.2 (build 2540/release)
Writing library : VirtualDubMod build 2540/release

Video
ID : 0
Format : MPEG-4 Visual
Format profile : Advanced [email protected]
Format settings, BVOP : 2
Format settings, QPel : No
Format settings, GMC : No warppoints
Format settings, Matrix : Custom
Codec ID : XVID
Codec ID/Hint : XviD
Duration : 2h 4mn
Bit rate : 1 381 Kbps
Width : 720 pixels
Height : 304 pixels
Display aspect ratio : 2.35:1
Frame rate : 23.976 fps
Color space : YUV
Chroma subsampling : 4:2:0
Bit depth : 8 bits
Scan type : Progressive
Compression mode : Lossy
Bits/(Pixel*Frame) : 0.263
Stream size : 1.20 GiB (87%)
Writing library : XviD 58

Audio
ID : 1
Format : MPEG Audio
Format version : Version 1
Format profile : Layer 3
Codec ID : 55
Codec ID/Hint : MP3
Duration : 2h 4mn
Bit rate mode : Constant
Bit rate : 192 Kbps
Channel(s) : 2 channels
Sampling rate : 48.0 KHz
Compression mode : Lossy
Stream size : 171 MiB (12%)
Alignment : Aligned on interleaves
Interleave, duration : 42 ms (1.00 video frame)
Interleave, preload duration : 504 ms
Writing library : LAME3.97
Encoding settings : -m s -V 4 -q 2 -lowpass 18.6 -b 192