Yes.or.No.2010.DVDRip.x264.AAC6-SeeingMole.iNT



IMDB :
http://www.movieseer.com/th/movies/19722--Yes_or_No



Synopsis:
A so-called Thai lesbian movie, Yes or No tells the story of Pai, a college girl who holds a negative attitude about tomboys. Yet she finds out that her new room-mate, Kim, is a woman who dresses like a man and who likes women. The initial mistrust slowly changes into something else as Kim begins to pursue Pai.
Wupload :
http://www.wupload.com/file/40327222....mp4.part1.rar
http://www.wupload.com/file/40328534....mp4.part1.rar
http://www.wupload.com/file/40328594....mp4.part2.rar
http://www.wupload.com/file/40328675....mp4.part3.rar

Fileserve :
http://www.fileserve.com/file/KBu92n....mp4.part1.rar
http://www.fileserve.com/file/w67ha8....mp4.part2.rar
http://www.fileserve.com/file/4A4NAM....mp4.part3.rar

Filejungle :
http://www.filejungle.com/f/WyW95P/Y....mp4.part1.rar
http://www.filejungle.com/f/kRc55G/Y....mp4.part2.rar
http://www.filejungle.com/f/nrt3Sv/Y....mp4.part3.rar

Filesonic :
http://www.filesonic.com/file/255668....mp4.part1.rar
http://www.filesonic.com/file/255668....mp4.part2.rar
http://www.filesonic.com/file/255668....mp4.part3.rar

PLEASE REPLY IF YOU LIKE MY POST!

SCREENSHOT :


NFO :
General
Complete name : Yes.or.No.2010.DVDRip.x264.AAC6-SeeingMole.iNT.mp4
Format : MPEG-4
Format profile : Base Media
Codec ID : isom
File size : 1.07 GiB
Duration : 1h 46mn
Overall bit rate : 1 441 Kbps
Encoded date : UTC 2011-06-08 00:36:53
Tagged date : UTC 2011-06-08 00:36:53

Video
ID : 1
Format : AVC
Format/Info : Advanced Video Codec
Format profile : [email protected]
Format settings, CABAC : Yes
Format settings, ReFrames : 5 frames
Codec ID : avc1
Codec ID/Info : Advanced Video Coding
Duration : 1h 46mn
Bit rate mode : Variable
Bit rate : 1 181 Kbps
Maximum bit rate : 4 848 Kbps
Width : 720 pixels
Height : 400 pixels
Display aspect ratio : 16:9
Frame rate mode : Constant
Frame rate : 25.000 fps
Color space : YUV
Chroma subsampling : 4:2:0
Bit depth : 8 bits
Scan type : Progressive
Bits/(Pixel*Frame) : 0.164
Stream size : 899 MiB (82%)
Title : Imported with GPAC 0.4.6-DEV (internal rev. 8)
Writing library : x264 core 115 r1947 b5a8ad7
Encoding settings : cabac=1 / ref=5 / deblock=1:0:0 / analyse=0x3:0x133 / me=umh / subme=9 / psy=1 / psy_rd=1.00:0.00 / mixed_ref=1 / me_range=16 / chroma_me=1 / trellis=1 / 8x8dct=1 / cqm=0 / deadzone=21,11 / fast_pskip=0 / chroma_qp_offset=-2 / threads=3 / sliced_threads=0 / nr=0 / decimate=1 / interlaced=0 / bluray_compat=0 / constrained_intra=0 / bframes=5 / b_pyramid=2 / b_adapt=2 / b_bias=0 / direct=3 / weightb=1 / open_gop=0 / weightp=2 / keyint=250 / keyint_min=25 / scenecut=40 / intra_refresh=0 / rc_lookahead=40 / rc=2pass / mbtree=1 / bitrate=1181 / ratetol=1.0 / qcomp=0.60 / qpmin=0 / qpmax=51 / qpstep=4 / cplxblur=20.0 / qblur=0.5 / ip_ratio=1.40 / aq=1:1.00
Encoded date : UTC 2011-06-08 00:36:53
Tagged date : UTC 2011-06-08 00:37:36

Audio
ID : 2
Format : AAC
Format/Info : Advanced Audio Codec
Format profile : HE-AAC / LC
Codec ID : 40
Duration : 1h 46mn
Bit rate mode : Variable
Bit rate : 257 Kbps
Maximum bit rate : 323 Kbps
Channel(s) : 6 channels
Channel positions : Front: L C R, Side: L R, LFE
Sampling rate : 48.0 KHz / 24.0 KHz
Compression mode : Lossy
Stream size : 196 MiB (18%)
Encoded date : UTC 2011-06-08 00:37:29
Tagged date : UTC 2011-06-08 00:37:36